<?xml version="1.0" standalone="no"?>
<!DOCTYPE svg PUBLIC "-//W3C//DTD SVG 1.1//EN" "http://www.w3.org/Graphics/SVG/1.1/DTD/svg11.dtd" >
<svg xmlns="http://www.w3.org/2000/svg" xmlns:xlink="http://www.w3.org/1999/xlink" version="1.1">
<metadata></metadata>
<defs>
<font id="dejavu_sans_bpg_book" horiz-adv-x="1045" >
<font-face units-per-em="2048" ascent="1556" descent="-492" />
<missing-glyph horiz-adv-x="651" />
<glyph horiz-adv-x="682" />
<glyph unicode=" "  horiz-adv-x="651" />
<glyph unicode="&#x09;" horiz-adv-x="651" />
<glyph unicode="&#xa0;" horiz-adv-x="651" />
<glyph unicode="&#x10d0;" horiz-adv-x="1035" d="M935 604q0 -604 -415 -604q-420 0 -420 561v130h188v-128q0 -393 232 -393q229 0 229 434q0 263 -198 454q-202 194 -201 493h182q3 -260 206 -461q197 -202 197 -486z" />
<glyph unicode="&#x10d1;" horiz-adv-x="1035" d="M935 547q2 -548 -415 -547q-420 0 -420 543q1 418 331 476q35 145 3 213q-56 73 -155.5 112t-106.5 206h178q14 -100 96.5 -126.5t152.5 -138.5q46 -106 12 -270q326 -45 324 -468zM747 547q2 307 -225 307q-231 -1 -232 -307q0 -378 230 -377q227 -1 227 377z" />
<glyph unicode="&#x10d2;" horiz-adv-x="1189" d="M1089 516q0 -519 -492 -518q-497 2 -497 506q0 434 395 488q236 132 236 272q0 112 -160 113q-210 -1 -210 -113v-112h-167v112q0 286 374 286q344 0 344 -286q0 -136 -198 -280q375 -47 375 -468zM903 510q0 317 -302 317q-319 -1 -319 -311q0 -347 317 -346 q304 0 304 340z" />
<glyph unicode="&#x10d3;" horiz-adv-x="1620" d="M338 219l138 -16q-374 224 -376 750q0 597 390 598q228 -1 296 -246q82 245 319 246q414 -1 415 -576q-1 -578 -415 -579q-417 0 -414 571v4q-2 408 -201 407q-203 0 -204 -425q-1 -351 186.5 -564.5t591.5 -218.5h186v-170h-188l-728 54zM1335 975q-3 404 -230 403 q-229 0 -230 -403q-2 -406 230 -405q231 -1 230 405z" />
<glyph unicode="&#x10d4;" d="M935 434q0 -435 -421 -436q-412 1 -414 436v193h186v-193q0 -264 234 -264q229 0 229 264v691q0 255 -205 255q-228 -1 -228 -220q0 -118 126 -142v-183q-310 32 -310 334v3q0 379 418 379q385 0 385 -426v-691z" />
<glyph unicode="&#x10d5;" d="M935 434q0 -434 -415 -434q-420 0 -420 434v211h186v-211q0 -264 234 -264q229 0 229 264v83q0 211 -205 211h-154v170h154q205 0 205 254q0 224 -230 224h-6q-197 0 -197 -251v-41h-184v44q0 423 388 423q415 0 415 -393q0 -207 -178 -337q178 -75 178 -304v-83z" />
<glyph unicode="&#x10d6;" horiz-adv-x="1200" d="M1100 517q0 -517 -458 -517q-448 0 -450 507q11 231 95 281q-276 66 -277 364q1 397 369 399q393 -1 393 -388q0 -111 -61 -192q389 0 389 -454zM900 517q0 291 -250 294q-271 -1 -271 -294q0 -347 263 -347q258 0 258 347zM589 1160q-1 219 -210 218q-190 0 -189 -218 q0 -230 189 -231q209 0 210 231z" />
<glyph unicode="&#x10d7;" horiz-adv-x="1605" d="M1495 1070v-553q0 -517 -374 -517h-17v170q201 0 201 347v553q0 308 -201 308q-199 0 -199 -308v-553q0 -517 -403 -517q-392 0 -392 517v553q0 481 400 481q251 0 296 -225q47 225 298 225q391 0 391 -481zM719 517v553q0 308 -209 308q-214 0 -214 -308v-553 q0 -347 214 -347q209 0 209 347z" />
<glyph unicode="&#x10d8;" horiz-adv-x="1015" d="M905 1070v-553q0 -460 -292 -517v170q106 31 106 347v553q0 308 -209 308q-214 0 -214 -308v-553q0 -315 113 -347v-170q-299 59 -299 517v553q0 481 400 481q395 0 395 -481z" />
<glyph unicode="&#x10d9;" d="M935 434q0 -434 -415 -434q-420 0 -420 434v83h186v-83q0 -264 234 -264q229 0 229 264v83q0 211 -205 211h-154v170h154q205 -2 205 254q0 224 -316 224v175q502 -1 502 -393q0 -207 -178 -337q178 -75 178 -304v-83z" />
<glyph unicode="&#x10da;" horiz-adv-x="2156" d="M2056 971q0 -485 -377 -557v170q201 52 201 387q1 408 -209 407q-224 -1 -223 -367v-266h-165v266q1 368 -200 367q-201 1 -200 -367v-266h-166v266q1 369 -219 367q-215 1 -214 -391q70 -716 960 -817h349v-160h-349l-811 37l26 153l250 -19q-607 231 -609 808 q2 561 398 562q215 -1 307 -236q58 235 278 236q207 -1 285 -232q63 231 303 232q386 -1 385 -554v-26z" />
<glyph unicode="&#x10db;" d="M935 517q0 -517 -415 -517q-420 0 -420 517q0 505 414 526q145 -10 235 -93v175q0 253 -235 255q-209 -2 -210 -222h-182v3q0 390 398 390q415 0 415 -426v-608zM749 517q0 335 -235 337q-228 0 -228 -337q0 -347 234 -347q229 0 229 347z" />
<glyph unicode="&#x10dc;" horiz-adv-x="1043" d="M943 517q0 -517 -419 -517q-414 0 -414 507v621q0 403 414 403h329v-173h-325q-234 0 -234 -233v-198q116 113 230 118q419 -1 419 -528zM757 517q0 339 -233 339q-230 0 -230 -339q0 -347 230 -347q233 0 233 347z" />
<glyph unicode="&#x10dd;" horiz-adv-x="1500" d="M1390 1070v-574q0 -442 -394 -496v170q209 0 209 347v553q0 308 -211 308q-149 0 -149 -261v-507h-186v515q0 253 -179 253q-184 0 -184 -308v-553q0 -307 184 -347v-170q-370 54 -370 517v553q0 481 370 481q180 0 272 -173q92 173 242 173q396 0 396 -481z" />
<glyph unicode="&#x10de;" horiz-adv-x="1033" d="M933 434q0 -434 -417 -434q-416 0 -416 434v133h186v-133q0 -264 228 -264q235 0 235 264q0 288 -233 288h-156v178h156q231 0 233 221v4q-2 255 -465 255h-82v171h82q649 0 649 -426q0 -225 -206 -314q206 -90 206 -377z" />
<glyph unicode="&#x10df;" horiz-adv-x="1052" d="M942 434q0 -435 -418 -436q-414 2 -414 414v48h187v-48q0 -242 229 -242q230 0 230 264v904l-350 -52q191 -154 191 -336q0 -336 -477 -339l-2 160q292 -1 292 177q0 218 -262 332v161l794 110v-1117z" />
<glyph unicode="&#x10e0;" horiz-adv-x="1683" d="M1583 541q-1 -517 -420 -541v170q227 1 228 377q0 308 -228 309q-231 0 -232 -342v-204h-184v204q0 342 -233 342q-231 -1 -230 -309q-1 -378 230 -377v-170q-414 19 -414 537v4q41 575 492 737.5t454 271.5h190q-23 -201 -362.5 -303t-368.5 -202q213 0 335 -236 q96 236 308 236q435 0 435 -504z" />
<glyph unicode="&#x10e1;" horiz-adv-x="1044" d="M943 458q-1 -458 -419 -458q-414 0 -414 458v1093h184v-1093q0 -288 232 -288q231 5 235 288q1 114 -98.5 218.5t-105.5 235.5q1 189 168 299l98 -130q-86 -38 -93 -181q3 -114 108 -187t105 -255z" />
<glyph unicode="&#x10e2;" horiz-adv-x="1425" d="M1325 517q1 -507 -557 -515h-7q-651 8 -651 517v734h186v-734q0 -348 469 -349q378 6 378 347q0 321 -291 322h-112q-89 0 -92 -156q3 -103 115 -104l49 -2v-155l-45 -1q-299 0 -299 262q1 200 159 250q-156 81 -159 267q1 351 318 351q311 -1 309 -351q0 -203 -165 -261 q395 0 395 -422zM648 1200q3 -193 138 -193q132 0 132 190v3q-1 179 -132 178q-138 1 -138 -178z" />
<glyph unicode="&#x10e3;" horiz-adv-x="1199" d="M1089 412q-2 -412 -464 -414q-462 1 -462 414v252h184v-252q0 -242 278 -242q258 0 258 242v713q0 128 -34 190.5t-100 62.5q-150 0 -152 -241v-277h-168v277q-2 241 -139 241h-190v173h186q134 0 235 -146q56 145 228 144l3 1q335 0 337 -429v-709z" />
<glyph unicode="&#x10e4;" horiz-adv-x="1620" d="M1520 434q0 -434 -591 -436q-590 2 -591 341h182q0 -169 409 -169q406 0 406 264q0 196 -141 199h-92v172h92q141 0 141 320q0 253 -231 253q-169 0 -169 -346q0 -533 -421 -533q-414 0 -414 533q0 519 420 519q230 0 316 -173q98 173 268 173q416 0 416 -426 q0 -320 -167 -399q167 -92 167 -292zM749 1032q0 346 -229 346q-234 0 -234 -346q0 -360 228 -359q235 0 235 359z" />
<glyph unicode="&#x10e5;" horiz-adv-x="1043" d="M933 434q-2 -432 -419 -432q-414 -2 -414 432v130h184v-130q0 -264 232 -264q231 0 231 264v412q0 310 -264 316q-156 -2 -157 -333h-163q0 506 316 505q156 0 268 -119v336h186v-1117z" />
<glyph unicode="&#x10e6;" horiz-adv-x="1683" d="M1273 0h-230l-678 36l22 153l224 -19q-509 199 -511 837q2 543 418 544q229 0 326 -217q89 217 319 217q419 -1 420 -521q0 -553 -451 -553v174q261 0 261 379q-1 350 -230 348q-230 0 -230 -308v-280h-186v280q0 308 -229 308q-235 1 -234 -368q0 -735 759 -840h230 v-170z" />
<glyph unicode="&#x10e7;" d="M935 434q0 -435 -419 -436q-416 1 -416 436v26h186v-26q0 -264 230 -264q233 0 233 264v312q-70 -142 -229 -144q-420 2 -420 468q0 335 172 501l152 -45q-138 -122 -138 -456q0 -296 230 -296q233 73 233 296v481h186v-1117z" />
<glyph unicode="&#x10e8;" horiz-adv-x="1096" d="M956 514q0 -514 -416 -514q-417 0 -417 514v3q0 504 417 504q125 -3 231 -110v364q-2 115 -145 115q-111 0 -117 -186v-35h-146v35q-6 186 -263 186v169h5q261 0 327 -151q82 151 224 151q297 0 300 -284v-761zM771 514q0 330 -231 332q-232 -2 -233 -332 q2 -344 233 -344t231 344z" />
<glyph unicode="&#x10e9;" horiz-adv-x="1043" d="M687 867q253 -83 256 -433q0 -301 -121 -465l-181 31q116 134 116 434q-2 288 -229 288q-234 0 -234 -306v-416h-184v1028q-1 523 327 523q369 -1 370 -339q-4 -175 -120 -345zM625 1212q-1 166 -188 168q-143 0 -143 -352v-238q64 87 234 98q96 160 97 324z" />
<glyph unicode="&#x10ea;" horiz-adv-x="1172" d="M1070 1131q2 -191 -253 -280q255 -55 255 -374q0 -477 -463 -477q-509 0 -509 517v453q4 413 151 612l134 -94q-93 -144 -99 -518v-453q0 -347 323 -347q274 0 274 297q-2 297 -235 297h-102v176h96q240 0 241 190q0 112 -145.5 189.5t-148.5 230.5h160q8 -95 164.5 -187 t156.5 -232z" />
<glyph unicode="&#x10eb;" d="M935 537q0 -537 -415 -537q-420 0 -420 537q0 510 420 510q177 -22 229 -110v614h186v-1014zM749 537q-2 336 -235 336q-228 0 -228 -336q0 -367 234 -367q229 0 229 367z" />
<glyph unicode="&#x10ec;" horiz-adv-x="1046" d="M112 1253q0 298 307 298q125 0 210 -153q100 153 317 153v-173q-245 0 -244 -134v-26h-136v26q0 135 -147 136q-123 -2 -123 -135v-297q92 97 230 97q419 0 419 -528q0 -517 -415 -517q-421 0 -420 517zM296 517q0 -347 234 -347q229 0 229 347q0 339 -235 339 q-228 0 -228 -339z" />
<glyph unicode="&#x10ed;" horiz-adv-x="1035" d="M935 424q0 -426 -421 -426q-412 1 -412 436l-2 26h186v-26q0 -264 234 -264q229 0 229 264q0 187 -203 344l-134 -23q-310 0 -310 313q0 310 310 310q55 0 83 -8v179h171v-266q56 -47 83 -133h184v-159h-184q-27 -81 -63 -124q249 -176 249 -443zM286 1070 q0 -162 153 -162q159 0 160 162q-1 152 -152 152q-161 0 -161 -152z" />
<glyph unicode="&#x10ee;" horiz-adv-x="1043" d="M943 517q0 -517 -417 -517q-416 0 -416 517v1034h186v-603q79 97 230 97q417 1 417 -528zM757 517q0 338 -231 339q-230 0 -230 -339q0 -347 230 -347q231 0 231 347z" />
<glyph unicode="&#x10ef;" horiz-adv-x="1033" d="M933 420q0 -420 -419 -422q-414 1 -414 436v143h186v-143q0 -264 230 -264q231 1 233 250q-3 152 -165.5 259t-161.5 299v82l-280 109v172l285 -111v321h176v-375l272 -104l-4 -179l-275 134q-2 -154 166.5 -280t170.5 -327z" />
<glyph unicode="&#x10f0;" horiz-adv-x="1043" d="M933 360q0 -360 -417 -360q-416 0 -416 416v44h186v-44q0 -246 230 -246q233 0 233 190q0 157 -110 157h-208v170h208q110 0 110 118q0 98 -110 99h-208v172h225q91 0 91 136q0 166 -335 166h-131v173h131q521 0 521 -339q0 -142 -107 -225q107 -77 107 -180 q0 -131 -107 -205q107 -85 107 -242z" />
<glyph unicode="&#x10f1;" horiz-adv-x="1112" d="M550 0q-440 0 -440 434v971h186v-971q0 -264 256 -264q261 0 261 217q0 191 -95 192h-156v178h156q95 0 101 106q-6 101 -103 101h-154v184h154q97 2 103 101q-6 129 -257 129v173q438 0 438 -305q0 -98 -106 -182q104 -73 106 -201v-3q0 -105 -117 -196 q119 -87 119 -277q0 -387 -452 -387z" />
<glyph unicode="&#x10f2;" horiz-adv-x="1053" d="M110 -16q182 16 242 55q-242 131 -242 478v551q0 481 411 481h6q416 0 416 -485v-547q0 -347 -245 -482q50 -39 239 -58v-184q-179 25 -409 207q-236 -182 -418 -207v191zM294 517q0 -347 234 -347q229 0 229 347v547q0 314 -233 314q-230 0 -230 -314v-547z" />
<glyph unicode="&#x10f3;" horiz-adv-x="1035" d="M935 434q0 -435 -421 -436q-412 1 -412 414v105h184v-114q0 -233 234 -233q229 0 229 264q0 367 -235 367h-154v182h154q172 0 235 395h-463v-190h-186v363h835q0 -487 -233 -651q233 -33 233 -466z" />
<glyph unicode="&#x10f4;" horiz-adv-x="1035" d="M935 434q0 -435 -419 -436q-416 1 -416 436v26h186v-26q0 -264 230 -264q233 0 233 264q0 295 -213 294h-176v180h156q235 -4 235 335q-156 -39 -235 -39q-416 7 -416 347h186q0 -171 230 -171h4q252 0 415 171v-310q0 -319 -260 -420q260 -97 260 -387z" />
<glyph unicode="&#x10f5;" horiz-adv-x="1157" d="M935 458v-98q0 -361 -415 -362q-420 2 -420 362q0 304 217 400q-217 92 -217 452q0 339 420 339q415 0 415 -339v-126h122v-178h-122v-277l122 2v-175h-122zM286 1212q0 -360 228 -360h235v360q0 166 -229 166q-234 0 -234 -166zM749 671h-235q-228 -7 -228 -311 q0 -190 234 -190q229 0 229 190v311z" />
<glyph unicode="&#x10f6;" horiz-adv-x="1685" d="M1585 1048q0 -487 -424 -487q-114 0 -224 84v-285q0 -360 -417 -360v170q229 0 229 190v692q0 326 -229 326q-232 0 -232 -321q0 -312 248 -319v-177q-435 0 -436 496q1 494 420 494q229 0 314 -146q103 146 333 146q418 0 418 -503zM1399 1052q0 326 -232 326 q-230 0 -230 -326q0 -306 230 -306q232 0 232 306z" />
<glyph unicode="&#x2000;" horiz-adv-x="791" />
<glyph unicode="&#x2001;" horiz-adv-x="1582" />
<glyph unicode="&#x2002;" horiz-adv-x="791" />
<glyph unicode="&#x2003;" horiz-adv-x="1582" />
<glyph unicode="&#x2004;" horiz-adv-x="527" />
<glyph unicode="&#x2005;" horiz-adv-x="395" />
<glyph unicode="&#x2006;" horiz-adv-x="263" />
<glyph unicode="&#x2007;" horiz-adv-x="263" />
<glyph unicode="&#x2008;" horiz-adv-x="197" />
<glyph unicode="&#x2009;" horiz-adv-x="316" />
<glyph unicode="&#x200a;" horiz-adv-x="87" />
<glyph unicode="&#x202f;" horiz-adv-x="316" />
<glyph unicode="&#x205f;" horiz-adv-x="395" />
<glyph unicode="&#x25fc;" horiz-adv-x="500" d="M0 0v0v0v0v0z" />
</font>
</defs>
</svg>
