<?xml version="1.0" standalone="no"?>
<!DOCTYPE svg PUBLIC "-//W3C//DTD SVG 1.1//EN" "http://www.w3.org/Graphics/SVG/1.1/DTD/svg11.dtd" >
<svg xmlns="http://www.w3.org/2000/svg" xmlns:xlink="http://www.w3.org/1999/xlink" version="1.1">
<metadata></metadata>
<defs>
<font id="dejavu_sans_bpg_book" horiz-adv-x="0" >
<font-face units-per-em="2048" ascent="1556" descent="-492" />
<missing-glyph horiz-adv-x="651" />
<glyph unicode="&#xfb00;" horiz-adv-x="1411" d="M1450 1556v-153h-176q-99 0 -137.5 -40t-38.5 -144v-99h303v-143h-303v-977h-185v977h-505v-977h-185v977h-176v143h176v78q0 187 87 272.5t276 85.5h174v-153h-176q-99 0 -138 -40q-38 -40 -38 -144v-99h505v78q0 187 87 272.5t276 85.5h174z" />
<glyph unicode="&#xfb01;" horiz-adv-x="1290" d="M1098 1120v-1120h-185v977h-505v-977h-185v977h-176v143h176v78q0 183 86.5 270.5t265.5 87.5h185v-153h-176q-99 0 -137.5 -40t-38.5 -144v-99h690zM913 1554h185v-233h-185v233z" />
<glyph unicode="&#xfb02;" horiz-adv-x="1290" d="M586 1556h512v-1556h-185v1403h-329q-99 0 -137.5 -40t-38.5 -144v-99h303v-143h-303v-977h-185v977h-176v143h176v78q0 187 87 272.5t276 85.5z" />
<glyph unicode="&#xfb03;" horiz-adv-x="1980" d="M760 1556v-153h-176q-99 0 -138 -40q-38 -40 -38 -144v-99h505v78q0 187 87 272q28 28 67 47q78 39 209 39h174v-153h-176q-99 0 -137.5 -40t-38.5 -144v-99h690v-1120h-185v977h-505v-977h-185v977h-505v-977h-185v977h-176v143h176v78q0 187 87 272.5t276 85.5h174z M1603 1554h185v-233h-185v233z" />
<glyph unicode="&#xfb04;" horiz-adv-x="1980" d="M760 1556v-153h-176q-99 0 -138 -40q-38 -40 -38 -144v-99h505v78q0 187 87 272.5t276 85.5h512v-1556h-185v1403h-329q-99 0 -137.5 -40t-38.5 -144v-99h303v-143h-303v-977h-185v977h-505v-977h-185v977h-176v143h176v78q0 187 87 272.5t276 85.5h174z" />
<glyph horiz-adv-x="682" />
<glyph unicode=" "  horiz-adv-x="651" />
<glyph unicode="&#x09;" horiz-adv-x="651" />
<glyph unicode="&#xa0;" horiz-adv-x="651" />
<glyph unicode="!" horiz-adv-x="821" d="M309 254h203v-254h-203v254zM309 1493h203v-655l-20 -357h-162l-21 357v655z" />
<glyph unicode="&#x22;" horiz-adv-x="942" d="M367 1493v-555h-170v555h170zM745 1493v-555h-170v555h170z" />
<glyph unicode="#" horiz-adv-x="1716" d="M1047 901h-291l-84 -334h293zM897 1470l-104 -415h292l105 415h160l-103 -415h312v-154h-351l-82 -334h318v-153h-357l-104 -414h-160l103 414h-293l-103 -414h-161l104 414h-315v153h352l84 334h-322v154h361l102 415h162z" />
<glyph unicode="$" horiz-adv-x="1303" d="M692 -301h-100l-1 301q-105 2 -210 24.5t-211 67.5v180q102 -64 206.5 -96.5t215.5 -33.5v456q-221 36 -321.5 122t-100.5 236q0 163 109 257t313 108v235h100v-232q93 -4 180 -19.5t170 -42.5v-175q-83 42 -170.5 65t-179.5 27v-427q227 -35 334 -125t107 -246 q0 -169 -113.5 -266.5t-327.5 -112.5v-303zM592 770v410q-116 -13 -177 -66t-61 -141q0 -86 56.5 -134t181.5 -69zM692 578v-433q127 17 191.5 72t64.5 145q0 88 -61.5 140t-194.5 76z" />
<glyph unicode="%" horiz-adv-x="1946" d="M1489 657q-87 0 -136.5 -74t-49.5 -206q0 -130 49.5 -204.5t136.5 -74.5q85 0 134.5 74.5t49.5 204.5q0 131 -49.5 205.5t-134.5 74.5zM1489 784q158 0 251 -110t93 -297t-93.5 -296.5t-250.5 -109.5q-160 0 -253 109.5t-93 296.5q0 188 93.5 297.5t252.5 109.5z M457 1393q-86 0 -135.5 -74.5t-49.5 -204.5q0 -132 49 -206t136 -74t136.5 74t49.5 206q0 129 -50 204t-136 75zM1360 1520h160l-934 -1549h-160zM457 1520q158 0 252 -109.5t94 -296.5q0 -189 -93.5 -298t-252.5 -109t-251.5 109.5t-92.5 297.5q0 186 93 296t251 110z" />
<glyph unicode="&#x26;" horiz-adv-x="1597" d="M498 803q-91 -81 -133.5 -161.5t-42.5 -168.5q0 -146 106 -243t266 -97q95 0 178 31.5t156 95.5zM639 915l508 -520q59 89 92 190.5t39 215.5h186q-12 -132 -64 -261t-145 -255l279 -285h-252l-143 147q-104 -89 -218 -132.5t-245 -43.5q-241 0 -394 137.5t-153 352.5 q0 128 67 240.5t201 211.5q-48 63 -73 125.5t-25 122.5q0 162 111 260.5t295 98.5q83 0 165.5 -18t167.5 -54v-182q-87 47 -166 71.5t-147 24.5q-105 0 -170.5 -55.5t-65.5 -143.5q0 -51 29.5 -102.5t120.5 -145.5z" />
<glyph unicode="'" horiz-adv-x="563" d="M367 1493v-555h-170v555h170z" />
<glyph unicode="(" horiz-adv-x="799" d="M635 1554q-134 -230 -199 -455t-65 -456t65.5 -457.5t198.5 -455.5h-160q-150 235 -224.5 462t-74.5 451q0 223 74 449t225 462h160z" />
<glyph unicode=")" horiz-adv-x="799" d="M164 1554h160q150 -236 224.5 -462t74.5 -449q0 -224 -74.5 -451t-224.5 -462h-160q133 229 198.5 455.5t65.5 457.5t-65.5 456t-198.5 455z" />
<glyph unicode="*" horiz-adv-x="1024" d="M963 1247l-359 -194l359 -195l-58 -98l-336 203v-377h-114v377l-336 -203l-58 98l359 195l-359 194l58 99l336 -203v377h114v-377l336 203z" />
<glyph unicode="+" horiz-adv-x="1716" d="M942 1284v-557h557v-170h-557v-557h-168v557h-557v170h557v557h168z" />
<glyph unicode="," horiz-adv-x="651" d="M240 254h211v-172l-164 -320h-129l82 320v172z" />
<glyph unicode="-" horiz-adv-x="739" d="M100 643h539v-164h-539v164z" />
<glyph unicode="." horiz-adv-x="651" d="M219 254h211v-254h-211v254z" />
<glyph unicode="/" horiz-adv-x="690" d="M520 1493h170l-520 -1683h-170z" />
<glyph unicode="0" horiz-adv-x="1303" d="M651 1360q-156 0 -234.5 -153.5t-78.5 -461.5q0 -307 78.5 -460.5t234.5 -153.5q157 0 235.5 153.5t78.5 460.5q0 308 -78.5 461.5t-235.5 153.5zM651 1520q251 0 383.5 -198.5t132.5 -576.5q0 -377 -132.5 -575.5t-383.5 -198.5t-383.5 198.5t-132.5 575.5 q0 378 132.5 576.5t383.5 198.5z" />
<glyph unicode="1" horiz-adv-x="1303" d="M254 170h330v1139l-359 -72v184l357 72h202v-1323h330v-170h-860v170z" />
<glyph unicode="2" horiz-adv-x="1303" d="M393 170h705v-170h-948v170q115 119 313.5 319.5t249.5 258.5q97 109 135.5 184.5t38.5 148.5q0 119 -83.5 194t-217.5 75q-95 0 -200.5 -33t-225.5 -100v204q122 49 228 74t194 25q232 0 370 -116t138 -310q0 -92 -34.5 -174.5t-125.5 -194.5q-25 -29 -159 -167.5 t-378 -387.5z" />
<glyph unicode="3" horiz-adv-x="1303" d="M831 805q145 -31 226.5 -129t81.5 -242q0 -221 -152 -342t-432 -121q-94 0 -193.5 18.5t-205.5 55.5v195q84 -49 184 -74t209 -25q190 0 289.5 75t99.5 218q0 132 -92.5 206.5t-257.5 74.5h-174v166h182q149 0 228 59.5t79 171.5q0 115 -81.5 176.5t-233.5 61.5 q-83 0 -178 -18t-209 -56v180q115 32 215.5 48t189.5 16q230 0 364 -104.5t134 -282.5q0 -124 -71 -209.5t-202 -118.5z" />
<glyph unicode="4" horiz-adv-x="1303" d="M774 1317l-510 -797h510v797zM721 1493h254v-973h213v-168h-213v-352h-201v352h-674v195z" />
<glyph unicode="5" horiz-adv-x="1303" d="M221 1493h793v-170h-608v-366q44 15 88 22.5t88 7.5q250 0 396 -137t146 -371q0 -241 -150 -374.5t-423 -133.5q-94 0 -191.5 16t-201.5 48v203q90 -49 186 -73t203 -24q173 0 274 91t101 247t-101 247t-274 91q-81 0 -161.5 -18t-164.5 -56v750z" />
<glyph unicode="6" horiz-adv-x="1303" d="M676 827q-136 0 -215.5 -93t-79.5 -255q0 -161 79.5 -254.5t215.5 -93.5t215.5 93.5t79.5 254.5q0 162 -79.5 255t-215.5 93zM1077 1460v-184q-76 36 -153.5 55t-153.5 19q-200 0 -305.5 -135t-120.5 -408q59 87 148 133.5t196 46.5q225 0 355.5 -136.5t130.5 -371.5 q0 -230 -136 -369t-362 -139q-259 0 -396 198.5t-137 575.5q0 354 168 564.5t451 210.5q76 0 153.5 -15t161.5 -45z" />
<glyph unicode="7" horiz-adv-x="1303" d="M168 1493h960v-86l-542 -1407h-211l510 1323h-717v170z" />
<glyph unicode="8" horiz-adv-x="1303" d="M651 709q-144 0 -226.5 -77t-82.5 -212t82.5 -212t226.5 -77t227 77.5t83 211.5q0 135 -82.5 212t-227.5 77zM449 795q-130 32 -202.5 121t-72.5 217q0 179 127.5 283t349.5 104q223 0 350 -104t127 -283q0 -128 -72.5 -217t-201.5 -121q146 -34 227.5 -133t81.5 -242 q0 -217 -132.5 -333t-379.5 -116t-379.5 116t-132.5 333q0 143 82 242t228 133zM375 1114q0 -116 72.5 -181t203.5 -65q130 0 203.5 65t73.5 181t-73.5 181t-203.5 65q-131 0 -203.5 -65t-72.5 -181z" />
<glyph unicode="9" horiz-adv-x="1303" d="M225 31v184q76 -36 154 -55t153 -19q200 0 305.5 134.5t120.5 408.5q-58 -86 -147 -132t-197 -46q-224 0 -354.5 135.5t-130.5 370.5q0 230 136 369t362 139q259 0 395.5 -198.5t136.5 -576.5q0 -353 -167.5 -563.5t-450.5 -210.5q-76 0 -154 15t-162 45zM627 664 q136 0 215.5 93t79.5 255q0 161 -79.5 254.5t-215.5 93.5t-215.5 -93.5t-79.5 -254.5q0 -162 79.5 -255t215.5 -93z" />
<glyph unicode=":" horiz-adv-x="690" d="M240 254h211v-254h-211v254zM240 1059h211v-254h-211v254z" />
<glyph unicode=";" horiz-adv-x="690" d="M240 1059h211v-254h-211v254zM240 254h211v-172l-164 -320h-129l82 320v172z" />
<glyph unicode="&#x3c;" horiz-adv-x="1716" d="M1499 1008l-1032 -367l1032 -365v-182l-1282 465v166l1282 465v-182z" />
<glyph unicode="=" horiz-adv-x="1716" d="M217 930h1282v-168h-1282v168zM217 522h1282v-170h-1282v170z" />
<glyph unicode="&#x3e;" horiz-adv-x="1716" d="M217 1008v182l1282 -465v-166l-1282 -465v182l1030 365z" />
<glyph unicode="?" horiz-adv-x="1087" d="M391 254h203v-254h-203v254zM588 401h-191v154q0 101 28 166t118 151l90 89q57 53 82.5 100t25.5 96q0 89 -65.5 144t-173.5 55q-79 0 -168.5 -35t-186.5 -102v188q94 57 190.5 85t199.5 28q184 0 295.5 -97t111.5 -256q0 -76 -36 -144.5t-126 -154.5l-88 -86 q-47 -47 -66.5 -73.5t-27.5 -51.5q-6 -21 -9 -51t-3 -82v-123z" />
<glyph unicode="@" horiz-adv-x="2048" d="M762 537q0 -143 71 -224.5t195 -81.5q123 0 193.5 82t70.5 224q0 140 -72 222.5t-194 82.5q-121 0 -192.5 -82t-71.5 -223zM1307 238q-60 -77 -137.5 -113.5t-180.5 -36.5q-172 0 -279.5 124.5t-107.5 324.5t108 325t279 125q103 0 181 -37.5t137 -113.5v131h143v-736 q146 22 228.5 133.5t82.5 288.5q0 107 -31.5 201t-95.5 174q-104 131 -253.5 200.5t-325.5 69.5q-123 0 -236 -32.5t-209 -96.5q-157 -102 -245.5 -267.5t-88.5 -358.5q0 -159 57.5 -298t166.5 -245q105 -104 243 -158.5t295 -54.5q129 0 253.5 43.5t228.5 124.5l90 -111 q-125 -97 -272.5 -148.5t-299.5 -51.5q-185 0 -349 65.5t-292 190.5t-195 289.5t-67 353.5q0 182 68 347t194 290q129 127 298 194.5t358 67.5q212 0 393.5 -87t304.5 -247q75 -98 114.5 -213t39.5 -238q0 -263 -159 -415t-439 -158v154z" />
<glyph unicode="A" horiz-adv-x="1401" d="M700 1294l-274 -743h549zM586 1493h229l569 -1493h-210l-136 383h-673l-136 -383h-213z" />
<glyph unicode="B" horiz-adv-x="1405" d="M403 713v-547h324q163 0 241.5 67.5t78.5 206.5q0 140 -78.5 206.5t-241.5 66.5h-324zM403 1327v-450h299q148 0 220.5 55.5t72.5 169.5q0 113 -72.5 169t-220.5 56h-299zM201 1493h516q231 0 356 -96t125 -273q0 -137 -64 -218t-188 -101q149 -32 231.5 -133.5 t82.5 -253.5q0 -200 -136 -309t-387 -109h-536v1493z" />
<glyph unicode="C" horiz-adv-x="1430" d="M1319 1378v-213q-102 95 -217.5 142t-245.5 47q-256 0 -392 -156.5t-136 -452.5q0 -295 136 -451.5t392 -156.5q130 0 245.5 47t217.5 142v-211q-106 -72 -224.5 -108t-250.5 -36q-339 0 -534 207.5t-195 566.5q0 360 195 567.5t534 207.5q134 0 252.5 -35.5 t222.5 -106.5z" />
<glyph unicode="D" horiz-adv-x="1577" d="M403 1327v-1161h244q309 0 452.5 140t143.5 442q0 300 -143.5 439.5t-452.5 139.5h-244zM201 1493h415q434 0 637 -180.5t203 -564.5q0 -386 -204 -567t-636 -181h-415v1493z" />
<glyph unicode="E" horiz-adv-x="1294" d="M201 1493h944v-170h-742v-442h711v-170h-711v-541h760v-170h-962v1493z" />
<glyph unicode="F" horiz-adv-x="1178" d="M201 1493h858v-170h-656v-440h592v-170h-592v-713h-202v1493z" />
<glyph unicode="G" horiz-adv-x="1587" d="M1219 213v401h-330v166h530v-641q-117 -83 -258 -125.5t-301 -42.5q-350 0 -547.5 204.5t-197.5 569.5q0 366 197.5 570.5t547.5 204.5q146 0 277.5 -36t242.5 -106v-215q-112 95 -238 143t-265 48q-274 0 -411.5 -153t-137.5 -456q0 -302 137.5 -455t411.5 -153 q107 0 191 18.5t151 57.5z" />
<glyph unicode="H" horiz-adv-x="1540" d="M201 1493h202v-612h734v612h202v-1493h-202v711h-734v-711h-202v1493z" />
<glyph unicode="I" horiz-adv-x="604" d="M201 1493h202v-1493h-202v1493z" />
<glyph unicode="J" horiz-adv-x="604" d="M201 1493h202v-1389q0 -270 -102.5 -392t-329.5 -122h-77v170h63q134 0 189 75t55 269v1389z" />
<glyph unicode="K" horiz-adv-x="1343" d="M201 1493h202v-631l670 631h260l-741 -696l794 -797h-266l-717 719v-719h-202v1493z" />
<glyph unicode="L" horiz-adv-x="1141" d="M201 1493h202v-1323h727v-170h-929v1493z" />
<glyph unicode="M" horiz-adv-x="1767" d="M201 1493h301l381 -1016l383 1016h301v-1493h-197v1311l-385 -1024h-203l-385 1024v-1311h-196v1493z" />
<glyph unicode="N" horiz-adv-x="1532" d="M201 1493h272l662 -1249v1249h196v-1493h-272l-662 1249v-1249h-196v1493z" />
<glyph unicode="O" horiz-adv-x="1612" d="M807 1356q-220 0 -349.5 -164t-129.5 -447q0 -282 129.5 -446t349.5 -164t348.5 164t128.5 446q0 283 -128.5 447t-348.5 164zM807 1520q314 0 502 -210.5t188 -564.5q0 -353 -188 -563.5t-502 -210.5q-315 0 -503.5 210t-188.5 564t188.5 564.5t503.5 210.5z" />
<glyph unicode="P" horiz-adv-x="1235" d="M403 1327v-561h254q141 0 218 73t77 208q0 134 -77 207t-218 73h-254zM201 1493h456q251 0 379.5 -113.5t128.5 -332.5q0 -221 -128.5 -334t-379.5 -113h-254v-600h-202v1493z" />
<glyph unicode="Q" horiz-adv-x="1612" d="M807 1356q-220 0 -349.5 -164t-129.5 -447q0 -282 129.5 -446t349.5 -164t348.5 164t128.5 446q0 283 -128.5 447t-348.5 164zM1090 27l266 -291h-244l-221 239q-33 -2 -50.5 -3t-33.5 -1q-315 0 -503.5 210.5t-188.5 563.5q0 354 188.5 564.5t503.5 210.5 q314 0 502 -210.5t188 -564.5q0 -260 -104.5 -445t-302.5 -273z" />
<glyph unicode="R" horiz-adv-x="1423" d="M909 700q65 -22 126.5 -94t123.5 -198l205 -408h-217l-191 383q-74 150 -143.5 199t-189.5 49h-220v-631h-202v1493h456q256 0 382 -107t126 -323q0 -141 -65.5 -234t-190.5 -129zM403 1327v-530h254q146 0 220.5 67.5t74.5 198.5t-74.5 197.5t-220.5 66.5h-254z" />
<glyph unicode="S" horiz-adv-x="1300" d="M1096 1444v-197q-115 55 -217 82t-197 27q-165 0 -254.5 -64t-89.5 -182q0 -99 59.5 -149.5t225.5 -81.5l122 -25q226 -43 333.5 -151.5t107.5 -290.5q0 -217 -145.5 -329t-426.5 -112q-106 0 -225.5 24t-247.5 71v208q123 -69 241 -104t232 -35q173 0 267 68t94 194 q0 110 -67.5 172t-221.5 93l-123 24q-226 45 -327 141t-101 267q0 198 139.5 312t384.5 114q105 0 214 -19t223 -57z" />
<glyph unicode="T" horiz-adv-x="1251" d="M-6 1493h1263v-170h-530v-1323h-203v1323h-530v170z" />
<glyph unicode="U" horiz-adv-x="1499" d="M178 1493h203v-907q0 -240 87 -345.5t282 -105.5q194 0 281 105.5t87 345.5v907h203v-932q0 -292 -144.5 -441t-426.5 -149q-283 0 -427.5 149t-144.5 441v932z" />
<glyph unicode="V" horiz-adv-x="1401" d="M586 0l-570 1493h211l473 -1257l474 1257h210l-569 -1493h-229z" />
<glyph unicode="W" horiz-adv-x="2025" d="M68 1493h204l314 -1262l313 1262h227l314 -1262l313 1262h205l-375 -1493h-254l-315 1296l-318 -1296h-254z" />
<glyph unicode="X" horiz-adv-x="1403" d="M129 1493h217l371 -555l373 555h217l-480 -717l512 -776h-217l-420 635l-423 -635h-218l533 797z" />
<glyph unicode="Y" horiz-adv-x="1251" d="M-4 1493h217l414 -614l411 614h217l-528 -782v-711h-203v711z" />
<glyph unicode="Z" horiz-adv-x="1403" d="M115 1493h1173v-154l-944 -1169h967v-170h-1219v154l944 1169h-921v170z" />
<glyph unicode="[" horiz-adv-x="799" d="M176 1556h424v-143h-240v-1540h240v-143h-424v1826z" />
<glyph unicode="\" horiz-adv-x="690" d="M170 1493l520 -1683h-170l-520 1683h170z" />
<glyph unicode="]" horiz-adv-x="799" d="M623 1556v-1826h-424v143h239v1540h-239v143h424z" />
<glyph unicode="^" horiz-adv-x="1716" d="M956 1493l543 -557h-201l-440 395l-440 -395h-201l543 557h196z" />
<glyph unicode="_" horiz-adv-x="1024" d="M1044 -340v-143h-1064v143h1064z" />
<glyph unicode="`" horiz-adv-x="1024" d="M367 1638l282 -374h-153l-326 374h197z" />
<glyph unicode="a" horiz-adv-x="1255" d="M702 563q-223 0 -309 -51t-86 -174q0 -98 64.5 -155.5t175.5 -57.5q153 0 245.5 108.5t92.5 288.5v41h-183zM1069 639v-639h-184v170q-63 -102 -157 -150.5t-230 -48.5q-172 0 -273.5 96.5t-101.5 258.5q0 189 126.5 285t377.5 96h258v18q0 127 -83.5 196.5t-234.5 69.5 q-96 0 -187 -23t-175 -69v170q101 39 196 58.5t185 19.5q243 0 363 -126t120 -382z" />
<glyph unicode="b" horiz-adv-x="1300" d="M997 559q0 203 -83.5 318.5t-229.5 115.5t-229.5 -115.5t-83.5 -318.5t83.5 -318.5t229.5 -115.5t229.5 115.5t83.5 318.5zM371 950q58 100 146.5 148.5t211.5 48.5q204 0 331.5 -162t127.5 -426t-127.5 -426t-331.5 -162q-123 0 -211.5 48.5t-146.5 148.5v-168h-185 v1556h185v-606z" />
<glyph unicode="c" horiz-adv-x="1126" d="M999 1077v-172q-78 43 -156.5 64.5t-158.5 21.5q-179 0 -278 -113.5t-99 -318.5t99 -318.5t278 -113.5q80 0 158.5 21.5t156.5 64.5v-170q-77 -36 -159.5 -54t-175.5 -18q-253 0 -402 159t-149 429q0 274 150.5 431t412.5 157q85 0 166 -17.5t157 -52.5z" />
<glyph unicode="d" horiz-adv-x="1300" d="M930 950v606h184v-1556h-184v168q-58 -100 -146.5 -148.5t-212.5 -48.5q-203 0 -330.5 162t-127.5 426t127.5 426t330.5 162q124 0 212.5 -48.5t146.5 -148.5zM303 559q0 -203 83.5 -318.5t229.5 -115.5t230 115.5t84 318.5t-84 318.5t-230 115.5t-229.5 -115.5 t-83.5 -318.5z" />
<glyph unicode="e" horiz-adv-x="1260" d="M1151 606v-90h-846q12 -190 114.5 -289.5t285.5 -99.5q106 0 205.5 26t197.5 78v-174q-99 -42 -203 -64t-211 -22q-268 0 -424.5 156t-156.5 422q0 275 148.5 436.5t400.5 161.5q226 0 357.5 -145.5t131.5 -395.5zM967 660q-2 151 -84.5 241t-218.5 90q-154 0 -246.5 -87 t-106.5 -245z" />
<glyph unicode="f" horiz-adv-x="721" d="M760 1556v-153h-176q-99 0 -137.5 -40t-38.5 -144v-99h303v-143h-303v-977h-185v977h-176v143h176v78q0 187 87 272.5t276 85.5h174z" />
<glyph unicode="g" horiz-adv-x="1300" d="M930 573q0 200 -82.5 310t-231.5 110q-148 0 -230.5 -110t-82.5 -310q0 -199 82.5 -309t230.5 -110q149 0 231.5 110t82.5 309zM1114 139q0 -286 -127 -425.5t-389 -139.5q-97 0 -183 14.5t-167 44.5v179q81 -44 160 -65t161 -21q181 0 271 94.5t90 285.5v91 q-57 -99 -146 -148t-213 -49q-206 0 -332 157t-126 416q0 260 126 417t332 157q124 0 213 -49t146 -148v170h184v-981z" />
<glyph unicode="h" horiz-adv-x="1298" d="M1124 676v-676h-184v670q0 159 -62 238t-186 79q-149 0 -235 -95t-86 -259v-633h-185v1556h185v-610q66 101 155.5 151t206.5 50q193 0 292 -119.5t99 -351.5z" />
<glyph unicode="i" horiz-adv-x="569" d="M193 1120h184v-1120h-184v1120zM193 1556h184v-233h-184v233z" />
<glyph unicode="j" horiz-adv-x="569" d="M193 1120h184v-1140q0 -214 -81.5 -310t-262.5 -96h-70v156h49q105 0 143 48.5t38 201.5v1140zM193 1556h184v-233h-184v233z" />
<glyph unicode="k" horiz-adv-x="1186" d="M186 1556h185v-919l549 483h235l-594 -524l619 -596h-240l-569 547v-547h-185v1556z" />
<glyph unicode="l" horiz-adv-x="569" d="M193 1556h184v-1556h-184v1556z" />
<glyph unicode="m" horiz-adv-x="1995" d="M1065 905q69 124 165 183t226 59q175 0 270 -122.5t95 -348.5v-676h-185v670q0 161 -57 239t-174 78q-143 0 -226 -95t-83 -259v-633h-185v670q0 162 -57 239.5t-176 77.5q-141 0 -224 -95.5t-83 -258.5v-633h-185v1120h185v-174q63 103 151 152t209 49q122 0 207.5 -62 t126.5 -180z" />
<glyph unicode="n" horiz-adv-x="1298" d="M1124 676v-676h-184v670q0 159 -62 238t-186 79q-149 0 -235 -95t-86 -259v-633h-185v1120h185v-174q66 101 155.5 151t206.5 50q193 0 292 -119.5t99 -351.5z" />
<glyph unicode="o" horiz-adv-x="1253" d="M627 991q-148 0 -234 -115.5t-86 -316.5t85.5 -316.5t234.5 -115.5q147 0 233 116t86 316q0 199 -86 315.5t-233 116.5zM627 1147q240 0 377 -156t137 -432q0 -275 -137 -431.5t-377 -156.5q-241 0 -377.5 156.5t-136.5 431.5q0 276 136.5 432t377.5 156z" />
<glyph unicode="p" horiz-adv-x="1300" d="M371 168v-594h-185v1546h185v-170q58 100 146.5 148.5t211.5 48.5q204 0 331.5 -162t127.5 -426t-127.5 -426t-331.5 -162q-123 0 -211.5 48.5t-146.5 148.5zM997 559q0 203 -83.5 318.5t-229.5 115.5t-229.5 -115.5t-83.5 -318.5t83.5 -318.5t229.5 -115.5t229.5 115.5 t83.5 318.5z" />
<glyph unicode="q" horiz-adv-x="1300" d="M303 559q0 -203 83.5 -318.5t229.5 -115.5t230 115.5t84 318.5t-84 318.5t-230 115.5t-229.5 -115.5t-83.5 -318.5zM930 168q-58 -100 -146.5 -148.5t-212.5 -48.5q-203 0 -330.5 162t-127.5 426t127.5 426t330.5 162q124 0 212.5 -48.5t146.5 -148.5v170h184v-1546h-184 v594z" />
<glyph unicode="r" horiz-adv-x="842" d="M842 948q-31 18 -67.5 26.5t-80.5 8.5q-156 0 -239.5 -101.5t-83.5 -291.5v-590h-185v1120h185v-174q58 102 151 151.5t226 49.5q19 0 42 -2.5t51 -7.5z" />
<glyph unicode="s" horiz-adv-x="1067" d="M907 1087v-174q-78 40 -162 60t-174 20q-137 0 -205.5 -42t-68.5 -126q0 -64 49 -100.5t197 -69.5l63 -14q196 -42 278.5 -118.5t82.5 -213.5q0 -156 -123.5 -247t-339.5 -91q-90 0 -187.5 17.5t-205.5 52.5v190q102 -53 201 -79.5t196 -26.5q130 0 200 44.5t70 125.5 q0 75 -50.5 115t-221.5 77l-64 15q-171 36 -247 110.5t-76 204.5q0 158 112 244t318 86q102 0 192 -15t166 -45z" />
<glyph unicode="t" horiz-adv-x="803" d="M375 1438v-318h379v-143h-379v-608q0 -137 37.5 -176t152.5 -39h189v-154h-189q-213 0 -294 79.5t-81 289.5v608h-135v143h135v318h185z" />
<glyph unicode="u" horiz-adv-x="1298" d="M174 442v678h184v-671q0 -159 62 -238.5t186 -79.5q149 0 235.5 95t86.5 259v635h184v-1120h-184v172q-67 -102 -155.5 -151.5t-205.5 -49.5q-193 0 -293 120t-100 351zM637 1147z" />
<glyph unicode="v" horiz-adv-x="1212" d="M61 1120h195l350 -940l350 940h195l-420 -1120h-250z" />
<glyph unicode="w" horiz-adv-x="1675" d="M86 1120h184l230 -874l229 874h217l230 -874l229 874h184l-293 -1120h-217l-241 918l-242 -918h-217z" />
<glyph unicode="x" horiz-adv-x="1212" d="M1124 1120l-405 -545l426 -575h-217l-326 440l-326 -440h-217l435 586l-398 534h217l297 -399l297 399h217z" />
<glyph unicode="y" horiz-adv-x="1212" d="M659 -104q-78 -200 -152 -261t-198 -61h-147v154h108q76 0 118 36t93 170l33 84l-453 1102h195l350 -876l350 876h195z" />
<glyph unicode="z" horiz-adv-x="1075" d="M113 1120h874v-168l-692 -805h692v-147h-899v168l692 805h-667v147z" />
<glyph unicode="{" horiz-adv-x="1303" d="M1047 -190v-144h-62q-249 0 -333.5 74t-84.5 295v239q0 151 -54 209t-196 58h-61v143h61q143 0 196.5 57.5t53.5 206.5v240q0 221 84.5 294.5t333.5 73.5h62v-143h-68q-141 0 -184 -44t-43 -185v-248q0 -157 -45.5 -228t-155.5 -96q111 -27 156 -98t45 -227v-248 q0 -141 43 -185t184 -44h68z" />
<glyph unicode="|" horiz-adv-x="690" d="M430 1565v-2048h-170v2048h170z" />
<glyph unicode="}" horiz-adv-x="1303" d="M256 -190h70q140 0 182.5 43t42.5 186v248q0 156 45 227t156 98q-111 25 -156 96t-45 228v248q0 142 -42.5 185.5t-182.5 43.5h-70v143h63q249 0 332.5 -73.5t83.5 -294.5v-240q0 -149 54 -206.5t196 -57.5h62v-143h-62q-142 0 -196 -58t-54 -209v-239q0 -221 -83.5 -295 t-332.5 -74h-63v144z" />
<glyph unicode="~" horiz-adv-x="1716" d="M1499 817v-178q-105 -79 -194.5 -113t-186.5 -34q-110 0 -256 59q-11 4 -16 6q-7 3 -22 8q-155 62 -249 62q-88 0 -174 -38.5t-184 -121.5v178q105 79 194.5 113.5t186.5 34.5q110 0 257 -60l15 -6q8 -3 22 -8q155 -62 249 -62q86 0 170.5 38t187.5 122z" />
<glyph unicode="&#xa1;" horiz-adv-x="821" d="M512 866h-203v254h203v-254zM512 -373h-203v655l21 357h162l20 -357v-655z" />
<glyph unicode="&#xa2;" horiz-adv-x="1303" d="M678 131v856q-147 -18 -229 -131t-82 -297q0 -185 82 -298t229 -130zM1059 1077v-172q-74 41 -142 62t-136 24l-1 -864q70 5 138.5 26t140.5 60v-170q-65 -30 -133.5 -47.5t-145.5 -24.5v-284h-102v288q-241 20 -373.5 173.5t-132.5 410.5q0 258 132.5 411t373.5 175v287 h102l1 -287q73 -4 141.5 -20.5t136.5 -47.5z" />
<glyph unicode="&#xa3;" horiz-adv-x="1303" d="M1102 1460v-182q-76 41 -144 61.5t-129 20.5q-148 0 -206 -77.5t-58 -289.5v-215h391v-143h-391v-465h557v-170h-993v170h236v465h-199v143h199v238q0 261 107 382.5t339 121.5q61 0 136.5 -15.5t154.5 -44.5z" />
<glyph unicode="&#xa4;" horiz-adv-x="1303" d="M891 993l207 209l114 -115l-206 -206q37 -59 55 -118.5t18 -121.5q0 -63 -19 -120.5t-59 -114.5l209 -207l-114 -113l-207 207q-59 -40 -117 -59t-119 -19q-58 0 -118 18.5t-121 55.5l-207 -207l-113 115l207 206q-37 62 -55.5 121t-18.5 117q0 64 19 122t57 114 l-207 206l115 115l207 -207q55 39 113 57.5t122 18.5q60 0 118.5 -18t119.5 -56zM922 643q0 112 -77.5 189t-191.5 77q-112 0 -191 -77t-79 -189q0 -114 78.5 -192t191.5 -78t191 78.5t78 191.5z" />
<glyph unicode="&#xa5;" horiz-adv-x="1303" d="M1165 455h-413v-455h-201v455h-416v123h416v51l-84 155h-332v123h264l-317 586h190l379 -700l377 700h191l-318 -586h264v-123h-331l-84 -155v-51h415v-123z" />
<glyph unicode="&#xa6;" horiz-adv-x="690" d="M430 408v-758h-170v758h170zM430 1432v-758h-170v758h170z" />
<glyph unicode="&#xa7;" horiz-adv-x="1024" d="M379 936q-63 -46 -94 -91t-31 -91q0 -76 69.5 -142.5t319.5 -201.5q63 45 94 90.5t31 91.5q0 75 -71.5 143t-317.5 201zM829 1462v-164q-83 39 -154.5 58.5t-127.5 19.5q-97 0 -151 -40t-54 -111q0 -90 206 -205q26 -15 40 -23q211 -119 276.5 -196t65.5 -178 q0 -90 -46 -160t-139 -123q62 -52 90.5 -106.5t28.5 -118.5q0 -142 -102 -226t-275 -84q-73 0 -150 14.5t-165 43.5v164q87 -39 161 -58.5t132 -19.5q102 0 158.5 42t56.5 118q0 102 -221 225l-25 14q-214 120 -278 196.5t-64 178.5q0 91 46.5 162.5t137.5 120.5 q-59 44 -88.5 100t-29.5 125q0 130 100 209.5t266 79.5q73 0 149.5 -14.5t155.5 -43.5z" />
<glyph unicode="&#xa8;" horiz-adv-x="1024" d="M606 1552h203v-202h-203v202zM215 1552h203v-202h-203v202z" />
<glyph unicode="&#xa9;" horiz-adv-x="2048" d="M1024 1485q152 0 283.5 -55t240.5 -164t163 -240t54 -285q0 -152 -54 -282.5t-163 -239.5t-240.5 -164t-283.5 -55t-283.5 55t-240.5 164t-163 239.5t-54 282.5q0 154 54 285t163 240t240.5 164t283.5 55zM1024 1382q-131 0 -244 -47t-207 -141t-142 -208.5t-48 -244.5 q0 -129 48 -242.5t142 -207.5t207 -141.5t244 -47.5q132 0 245.5 47.5t207.5 141.5q93 93 139.5 206t46.5 244q0 133 -47 246.5t-139 206.5q-94 94 -207.5 141t-245.5 47zM1323 1137v-129q-66 33 -131 49t-131 16q-149 0 -232.5 -87.5t-83.5 -244.5q0 -159 85.5 -246 t240.5 -87q64 0 125 15.5t127 49.5v-127q-67 -29 -135.5 -43t-138.5 -14q-216 0 -341.5 122t-125.5 330q0 209 125.5 330t341.5 121q73 0 141 -14t133 -41z" />
<glyph unicode="&#xaa;" horiz-adv-x="965" d="M139 592h688v-123h-688v123zM825 1165v-448h-149v112q-44 -63 -116 -97t-165 -34q-128 0 -204 67.5t-76 180.5q0 135 95.5 204t283.5 69h182v4q0 91 -58.5 136.5t-175.5 45.5q-62 0 -130 -17t-136 -51v127q73 28 145.5 42t141.5 14q183 0 272.5 -88t89.5 -267zM549 1104 q-161 0 -224 -33.5t-63 -112.5q0 -64 49 -102.5t131 -38.5q104 0 169 72t65 186v29h-127z" />
<glyph unicode="&#xab;" horiz-adv-x="1253" d="M1061 1059v-191l-301 -268l301 -268v-191l-469 418v82zM627 1059v-191l-301 -268l301 -268v-191l-469 418v82z" />
<glyph unicode="&#xac;" horiz-adv-x="1716" d="M217 862h1282v-575h-168v405h-1114v170z" />
<glyph unicode="&#xad;" horiz-adv-x="739" d="M100 643h539v-164h-539v164z" />
<glyph unicode="&#xae;" horiz-adv-x="2048" d="M1024 1382q-131 0 -244 -47t-207 -141t-142 -208.5t-48 -244.5q0 -129 48 -242.5t142 -207.5t207 -141.5t244 -47.5q132 0 245.5 47.5t207.5 141.5q93 93 139.5 206t46.5 244q0 133 -47 246.5t-139 206.5q-94 94 -207.5 141t-245.5 47zM1024 1485q152 0 283.5 -55 t240.5 -164t163 -240t54 -285q0 -152 -54 -282.5t-163 -239.5t-240.5 -164t-283.5 -55t-283.5 55t-240.5 164t-163 239.5t-54 282.5q0 154 54 285t163 240t240.5 164t283.5 55zM997 1071h-123v-276h123q110 0 153.5 31t43.5 106q0 76 -44 107.5t-153 31.5zM1004 1174 q176 0 263 -59.5t87 -180.5q0 -86 -52.5 -142t-148.5 -73q24 -8 57.5 -46.5t79.5 -111.5l137 -223h-172l-129 209q-59 96 -95.5 121.5t-90.5 25.5h-66v-356h-155v836h285z" />
<glyph unicode="&#xaf;" horiz-adv-x="1024" d="M213 1526h598v-148h-598v148z" />
<glyph unicode="&#xb0;" horiz-adv-x="1024" d="M512 1391q-80 0 -135 -55.5t-55 -135.5q0 -79 55 -133.5t135 -54.5t135 54.5t55 133.5t-55.5 135t-134.5 56zM512 1520q64 0 123 -24.5t102 -70.5q46 -45 69 -102t23 -123q0 -132 -92.5 -223.5t-226.5 -91.5q-135 0 -225 90t-90 225q0 134 92 227t225 93z" />
<glyph unicode="&#xb1;" horiz-adv-x="1716" d="M942 1284v-387h557v-170h-557v-387h-168v387h-557v170h557v387h168zM217 170h1282v-170h-1282v170z" />
<glyph unicode="&#xb2;" horiz-adv-x="821" d="M268 782h424v-114h-598v110q34 31 97 87q344 305 344 399q0 66 -52 106.5t-137 40.5q-52 0 -113 -17.5t-133 -52.5v123q77 28 143.5 42t123.5 14q145 0 232 -66t87 -174q0 -139 -331 -423q-56 -48 -87 -75z" />
<glyph unicode="&#xb3;" horiz-adv-x="821" d="M524 1120q92 -18 142.5 -72.5t50.5 -136.5q0 -124 -95 -191t-272 -67q-57 0 -119.5 10.5t-132.5 30.5v121q52 -27 111.5 -40t126.5 -13q109 0 169 39.5t60 109.5q0 74 -55.5 112t-163.5 38h-86v108h94q94 0 142.5 31.5t48.5 91.5q0 58 -50 88.5t-145 30.5q-40 0 -91 -9 t-132 -32v115q73 17 137 26t119 9q144 0 228.5 -59t84.5 -158q0 -69 -45 -117t-127 -66z" />
<glyph unicode="&#xb4;" horiz-adv-x="1024" d="M651 1638h199l-326 -376h-153z" />
<glyph unicode="&#xb5;" horiz-adv-x="1303" d="M174 -426v1546h184v-696q0 -145 69 -219t204 -74q148 0 222.5 84t74.5 252v653h184v-862q0 -60 17.5 -88.5t54.5 -28.5q9 0 25 5.5t44 17.5v-148q-41 -23 -77.5 -34t-71.5 -11q-69 0 -110 39t-56 119q-50 -79 -122.5 -118.5t-170.5 -39.5q-102 0 -173.5 39t-113.5 117 v-553h-184z" />
<glyph unicode="&#xb6;" horiz-adv-x="1303" d="M633 1493h448v-1690h-141v1567h-190v-1567h-142v846q-215 17 -332.5 127.5t-117.5 294.5q0 190 130 306t345 116z" />
<glyph unicode="&#xb7;" horiz-adv-x="651" d="M219 838h211v-254h-211v254z" />
<glyph unicode="&#xb8;" horiz-adv-x="1024" d="M596 0q55 -62 82 -114.5t27 -100.5q0 -89 -60 -134.5t-178 -45.5q-46 0 -89.5 6t-86.5 18v131q34 -17 71 -24.5t84 -7.5q59 0 89 24t30 70q0 30 -21.5 73.5t-66.5 104.5h119z" />
<glyph unicode="&#xb9;" horiz-adv-x="821" d="M156 778h204v611l-223 -41v116l230 39h137v-725h205v-110h-553v110z" />
<glyph unicode="&#xba;" horiz-adv-x="965" d="M139 592h688v-123h-688v123zM483 1520q179 0 282 -110.5t103 -301.5t-103 -300.5t-282 -109.5t-283 110t-104 300q0 191 104 301.5t283 110.5zM483 1405q-105 0 -168 -80.5t-63 -216.5q0 -133 63.5 -213t167.5 -80q105 0 167.5 80t62.5 213q0 137 -62 217t-168 80z" />
<glyph unicode="&#xbb;" horiz-adv-x="1253" d="M193 1059l469 -418v-82l-469 -418v191l301 268l-301 268v191zM627 1059l469 -418v-82l-469 -418v191l301 268l-301 268v191z" />
<glyph unicode="&#xbc;" horiz-adv-x="1985" d="M156 778h204v611l-223 -41v116l230 39h137v-725h205v-110h-553v110zM1640 714l-309 -419h309v419zM1618 835h166v-540h135v-109h-135v-186h-144v186h-414v121zM1378 1520h160l-932 -1549h-160z" />
<glyph unicode="&#xbd;" horiz-adv-x="1985" d="M156 778h204v611l-223 -41v116l230 39h137v-725h205v-110h-553v110zM1431 114h424v-114h-598v110q34 31 97 87q344 305 344 399q0 66 -52 106.5t-137 40.5q-52 0 -113 -17.5t-133 -52.5v123q77 28 143.5 42t123.5 14q145 0 232 -66t87 -174q0 -139 -331 -423 q-56 -48 -87 -75zM1378 1520h160l-932 -1549h-160z" />
<glyph unicode="&#xbe;" horiz-adv-x="1985" d="M524 1120q92 -18 142.5 -72.5t50.5 -136.5q0 -124 -95 -191t-272 -67q-57 0 -119.5 10.5t-132.5 30.5v121q52 -27 111.5 -40t126.5 -13q109 0 169 39.5t60 109.5q0 74 -55.5 112t-163.5 38h-86v108h94q94 0 142.5 31.5t48.5 91.5q0 58 -50 88.5t-145 30.5q-40 0 -91 -9 t-132 -32v115q73 17 137 26t119 9q144 0 228.5 -59t84.5 -158q0 -69 -45 -117t-127 -66zM1640 714l-309 -419h309v419zM1618 835h166v-540h135v-109h-135v-186h-144v186h-414v121zM1378 1520h160l-932 -1549h-160z" />
<glyph unicode="&#xbf;" horiz-adv-x="1087" d="M500 719h190v-156q0 -101 -27.5 -166t-117.5 -152l-90 -88q-58 -53 -83.5 -100t-25.5 -96q0 -89 65.5 -144t174.5 -55q78 0 168 35t186 102v-188q-94 -57 -190 -85t-199 -28q-184 0 -296 97t-112 256q0 76 36.5 144.5t125.5 154.5l88 86q48 47 67 73.5t27 51.5 q7 21 10 51t3 84v123zM696 866h-202v254h202v-254z" />
<glyph unicode="&#xc0;" horiz-adv-x="1401" d="M700 1294l-274 -743h549zM586 1493h229l569 -1493h-210l-136 383h-673l-136 -383h-213zM643 1899l196 -264h-153l-230 264h187z" />
<glyph unicode="&#xc1;" horiz-adv-x="1401" d="M700 1294l-274 -743h549zM586 1493h229l569 -1493h-210l-136 383h-673l-136 -383h-213zM755 1899h185l-228 -264h-153z" />
<glyph unicode="&#xc2;" horiz-adv-x="1401" d="M700 1294l-274 -743h549zM586 1493h229l569 -1493h-210l-136 383h-673l-136 -383h-213zM606 1901h188l211 -266h-139l-166 178l-166 -178h-139z" />
<glyph unicode="&#xc3;" horiz-adv-x="1401" d="M700 1294l-274 -743h549zM586 1493h229l569 -1493h-210l-136 383h-673l-136 -383h-213zM696 1710l-57 33q-25 14 -40.5 19.5t-27.5 5.5q-36 0 -56 -25t-20 -70v-6h-125q0 101 51.5 160t137.5 59q36 0 66.5 -8t78.5 -35l57 -30q23 -13 40 -19t32 -6q32 0 52 25.5t20 66.5 v6h125q-2 -100 -53.5 -159.5t-135.5 -59.5q-34 0 -63.5 8t-81.5 35z" />
<glyph unicode="&#xc4;" horiz-adv-x="1401" d="M700 1294l-274 -743h549zM586 1493h229l569 -1493h-210l-136 383h-673l-136 -383h-213zM794 1870h203v-203h-203v203zM403 1870h203v-203h-203v203z" />
<glyph unicode="&#xc5;" horiz-adv-x="1401" d="M852 1626q0 63 -44.5 107.5t-107.5 44.5q-64 0 -107.5 -43.5t-43.5 -108.5q0 -63 44 -107t107 -44t107.5 44t44.5 107zM700 1294l-272 -743h545zM549 1397q-61 41 -92 98.5t-31 130.5q0 115 79.5 195t194.5 80q114 0 194.5 -80.5t80.5 -194.5q0 -70 -31.5 -129 t-91.5 -100l532 -1397h-210l-136 383h-673l-136 -383h-213z" />
<glyph unicode="&#xc6;" horiz-adv-x="1995" d="M1845 1493v-170h-741v-442h711v-170h-711v-541h760v-170h-963v383h-528l-160 -383h-205l625 1493h1212zM772 1335l-330 -784h459v784h-129z" />
<glyph unicode="&#xc7;" horiz-adv-x="1430" d="M1319 1378v-213q-102 95 -217.5 142t-245.5 47q-256 0 -392 -156.5t-136 -452.5q0 -295 136 -451.5t392 -156.5q130 0 245.5 47t217.5 142v-211q-106 -72 -224.5 -108t-250.5 -36q-339 0 -534 207.5t-195 566.5q0 360 195 567.5t534 207.5q134 0 252.5 -35.5 t222.5 -106.5zM897 0q55 -62 82 -114.5t27 -100.5q0 -89 -60 -134.5t-178 -45.5q-46 0 -89.5 6t-86.5 18v131q34 -17 71 -24.5t84 -7.5q59 0 89 24t30 70q0 30 -21.5 73.5t-66.5 104.5h119z" />
<glyph unicode="&#xc8;" horiz-adv-x="1294" d="M201 1493h944v-170h-742v-442h711v-170h-711v-541h760v-170h-962v1493zM613 1899l196 -264h-153l-230 264h187z" />
<glyph unicode="&#xc9;" horiz-adv-x="1294" d="M201 1493h944v-170h-742v-442h711v-170h-711v-541h760v-170h-962v1493zM725 1899h185l-228 -264h-153z" />
<glyph unicode="&#xca;" horiz-adv-x="1294" d="M201 1493h944v-170h-742v-442h711v-170h-711v-541h760v-170h-962v1493zM576 1901h188l211 -266h-139l-166 178l-166 -178h-139z" />
<glyph unicode="&#xcb;" horiz-adv-x="1294" d="M201 1493h944v-170h-742v-442h711v-170h-711v-541h760v-170h-962v1493zM764 1870h203v-203h-203v203zM373 1870h203v-203h-203v203z" />
<glyph unicode="&#xcc;" horiz-adv-x="604" d="M201 1493h202v-1493h-202v1493zM246 1899l196 -264h-153l-230 264h187z" />
<glyph unicode="&#xcd;" horiz-adv-x="604" d="M201 1493h202v-1493h-202v1493zM358 1899h185l-228 -264h-153z" />
<glyph unicode="&#xce;" horiz-adv-x="604" d="M201 1493h202v-1493h-202v1493zM209 1901h188l211 -266h-139l-166 178l-166 -178h-139z" />
<glyph unicode="&#xcf;" horiz-adv-x="604" d="M201 1493h202v-1493h-202v1493zM397 1870h203v-203h-203v203zM6 1870h203v-203h-203v203z" />
<glyph unicode="&#xd0;" horiz-adv-x="1587" d="M211 1493h416q433 0 636 -180.5t203 -564.5q0 -386 -203.5 -567t-635.5 -181h-416v700h-201v144h201v649zM414 1327v-483h336v-144h-336v-534h243q309 0 452.5 140t143.5 442q0 300 -143.5 439.5t-452.5 139.5h-243z" />
<glyph unicode="&#xd1;" horiz-adv-x="1532" d="M201 1493h272l662 -1249v1249h196v-1493h-272l-662 1249v-1249h-196v1493zM762 1710l-57 33q-25 14 -40.5 19.5t-27.5 5.5q-36 0 -56 -25t-20 -70v-6h-125q0 101 51.5 160t137.5 59q36 0 66.5 -8t78.5 -35l57 -30q23 -13 40 -19t32 -6q32 0 52 25.5t20 66.5v6h125 q-2 -100 -53.5 -159.5t-135.5 -59.5q-34 0 -63.5 8t-81.5 35z" />
<glyph unicode="&#xd2;" horiz-adv-x="1612" d="M807 1356q-220 0 -349.5 -164t-129.5 -447q0 -282 129.5 -446t349.5 -164t348.5 164t128.5 446q0 283 -128.5 447t-348.5 164zM807 1520q314 0 502 -210.5t188 -564.5q0 -353 -188 -563.5t-502 -210.5q-315 0 -503.5 210t-188.5 564t188.5 564.5t503.5 210.5zM750 1899 l196 -264h-153l-230 264h187z" />
<glyph unicode="&#xd3;" horiz-adv-x="1612" d="M807 1356q-220 0 -349.5 -164t-129.5 -447q0 -282 129.5 -446t349.5 -164t348.5 164t128.5 446q0 283 -128.5 447t-348.5 164zM807 1520q314 0 502 -210.5t188 -564.5q0 -353 -188 -563.5t-502 -210.5q-315 0 -503.5 210t-188.5 564t188.5 564.5t503.5 210.5zM862 1899 h185l-228 -264h-153z" />
<glyph unicode="&#xd4;" horiz-adv-x="1612" d="M807 1356q-220 0 -349.5 -164t-129.5 -447q0 -282 129.5 -446t349.5 -164t348.5 164t128.5 446q0 283 -128.5 447t-348.5 164zM807 1520q314 0 502 -210.5t188 -564.5q0 -353 -188 -563.5t-502 -210.5q-315 0 -503.5 210t-188.5 564t188.5 564.5t503.5 210.5zM713 1901 h188l211 -266h-139l-166 178l-166 -178h-139z" />
<glyph unicode="&#xd5;" horiz-adv-x="1612" d="M807 1356q-220 0 -349.5 -164t-129.5 -447q0 -282 129.5 -446t349.5 -164t348.5 164t128.5 446q0 283 -128.5 447t-348.5 164zM807 1520q314 0 502 -210.5t188 -564.5q0 -353 -188 -563.5t-502 -210.5q-315 0 -503.5 210t-188.5 564t188.5 564.5t503.5 210.5zM803 1710 l-57 33q-25 14 -40.5 19.5t-27.5 5.5q-36 0 -56 -25t-20 -70v-6h-125q0 101 51.5 160t137.5 59q36 0 66.5 -8t78.5 -35l57 -30q23 -13 40 -19t32 -6q32 0 52 25.5t20 66.5v6h125q-2 -100 -53.5 -159.5t-135.5 -59.5q-34 0 -63.5 8t-81.5 35z" />
<glyph unicode="&#xd6;" horiz-adv-x="1612" d="M807 1356q-220 0 -349.5 -164t-129.5 -447q0 -282 129.5 -446t349.5 -164t348.5 164t128.5 446q0 283 -128.5 447t-348.5 164zM807 1520q314 0 502 -210.5t188 -564.5q0 -353 -188 -563.5t-502 -210.5q-315 0 -503.5 210t-188.5 564t188.5 564.5t503.5 210.5zM901 1870 h203v-203h-203v203zM510 1870h203v-203h-203v203z" />
<glyph unicode="&#xd7;" horiz-adv-x="1716" d="M1436 1100l-457 -459l457 -457l-119 -121l-459 459l-459 -459l-118 121l456 457l-456 459l118 121l459 -459l459 459z" />
<glyph unicode="&#xd8;" horiz-adv-x="1612" d="M1206 1112l-717 -846q62 -64 142.5 -97.5t175.5 -33.5q220 0 348.5 164t128.5 446q0 112 -19.5 204t-58.5 163zM1124 1225q-61 64 -141.5 97.5t-175.5 33.5q-220 0 -349.5 -164t-129.5 -447q0 -112 19.5 -206t58.5 -162zM272 219q-78 102 -117.5 234t-39.5 292 q0 354 188.5 564.5t503.5 210.5q130 0 240.5 -38.5t197.5 -113.5l162 191l102 -89l-170 -198q78 -103 118 -236t40 -291q0 -353 -188 -563.5t-502 -210.5q-128 0 -238.5 37.5t-201.5 112.5l-162 -191l-103 88z" />
<glyph unicode="&#xd9;" horiz-adv-x="1499" d="M178 1493h203v-907q0 -240 87 -345.5t282 -105.5q194 0 281 105.5t87 345.5v907h203v-932q0 -292 -144.5 -441t-426.5 -149q-283 0 -427.5 149t-144.5 441v932zM693 1899l196 -264h-153l-230 264h187z" />
<glyph unicode="&#xda;" horiz-adv-x="1499" d="M178 1493h203v-907q0 -240 87 -345.5t282 -105.5q194 0 281 105.5t87 345.5v907h203v-932q0 -292 -144.5 -441t-426.5 -149q-283 0 -427.5 149t-144.5 441v932zM805 1899h185l-228 -264h-153z" />
<glyph unicode="&#xdb;" horiz-adv-x="1499" d="M178 1493h203v-907q0 -240 87 -345.5t282 -105.5q194 0 281 105.5t87 345.5v907h203v-932q0 -292 -144.5 -441t-426.5 -149q-283 0 -427.5 149t-144.5 441v932zM656 1901h188l211 -266h-139l-166 178l-166 -178h-139z" />
<glyph unicode="&#xdc;" horiz-adv-x="1499" d="M178 1493h203v-907q0 -240 87 -345.5t282 -105.5q194 0 281 105.5t87 345.5v907h203v-932q0 -292 -144.5 -441t-426.5 -149q-283 0 -427.5 149t-144.5 441v932zM844 1870h203v-203h-203v203zM453 1870h203v-203h-203v203z" />
<glyph unicode="&#xdd;" horiz-adv-x="1251" d="M-4 1493h217l414 -614l411 614h217l-528 -782v-711h-203v711zM682 1899h185l-228 -264h-153z" />
<glyph unicode="&#xde;" horiz-adv-x="1239" d="M201 1493h202v-264h254q251 0 379.5 -112.5t128.5 -332.5t-128.5 -333t-379.5 -113h-254v-338h-202v1493zM403 1063v-559h254q141 0 218 73t77 207t-76.5 206.5t-218.5 72.5h-254z" />
<glyph unicode="&#xdf;" horiz-adv-x="1290" d="M186 1137q0 200 119.5 309.5t337.5 109.5q208 0 317.5 -116t112.5 -340q-151 -8 -235 -65.5t-84 -153.5q0 -47 29 -87.5t94 -82.5l57 -37q166 -106 214 -177t48 -171q0 -172 -112.5 -263.5t-323.5 -91.5q-64 0 -132 12.5t-141 36.5v164q80 -30 150 -44.5t135 -14.5 q116 0 176 47.5t60 138.5q0 63 -29.5 105t-130.5 104l-92 55q-96 59 -139.5 126.5t-43.5 158.5q0 127 83.5 213t234.5 115q-8 103 -73.5 159t-178.5 56q-130 0 -198 -69.5t-68 -200.5v-1133h-187v1137z" />
<glyph unicode="&#xe0;" horiz-adv-x="1255" d="M702 563q-223 0 -309 -51t-86 -174q0 -98 64.5 -155.5t175.5 -57.5q153 0 245.5 108.5t92.5 288.5v41h-183zM1069 639v-639h-184v170q-63 -102 -157 -150.5t-230 -48.5q-172 0 -273.5 96.5t-101.5 258.5q0 189 126.5 285t377.5 96h258v18q0 127 -83.5 196.5t-234.5 69.5 q-96 0 -187 -23t-175 -69v170q101 39 196 58.5t185 19.5q243 0 363 -126t120 -382zM449 1638l282 -374h-153l-326 374h197z" />
<glyph unicode="&#xe1;" horiz-adv-x="1255" d="M702 563q-223 0 -309 -51t-86 -174q0 -98 64.5 -155.5t175.5 -57.5q153 0 245.5 108.5t92.5 288.5v41h-183zM1069 639v-639h-184v170q-63 -102 -157 -150.5t-230 -48.5q-172 0 -273.5 96.5t-101.5 258.5q0 189 126.5 285t377.5 96h258v18q0 127 -83.5 196.5t-234.5 69.5 q-96 0 -187 -23t-175 -69v170q101 39 196 58.5t185 19.5q243 0 363 -126t120 -382zM733 1638h199l-326 -376h-153z" />
<glyph unicode="&#xe2;" horiz-adv-x="1255" d="M702 563q-223 0 -309 -51t-86 -174q0 -98 64.5 -155.5t175.5 -57.5q153 0 245.5 108.5t92.5 288.5v41h-183zM1069 639v-639h-184v170q-63 -102 -157 -150.5t-230 -48.5q-172 0 -273.5 96.5t-101.5 258.5q0 189 126.5 285t377.5 96h258v18q0 127 -83.5 196.5t-234.5 69.5 q-96 0 -187 -23t-175 -69v170q101 39 196 58.5t185 19.5q243 0 363 -126t120 -382zM520 1638h148l245 -376h-139l-180 245l-180 -245h-139z" />
<glyph unicode="&#xe3;" horiz-adv-x="1255" d="M702 563q-223 0 -309 -51t-86 -174q0 -98 64.5 -155.5t175.5 -57.5q153 0 245.5 108.5t92.5 288.5v41h-183zM1069 639v-639h-184v170q-63 -102 -157 -150.5t-230 -48.5q-172 0 -273.5 96.5t-101.5 258.5q0 189 126.5 285t377.5 96h258v18q0 127 -83.5 196.5t-234.5 69.5 q-96 0 -187 -23t-175 -69v170q101 39 196 58.5t185 19.5q243 0 363 -126t120 -382zM590 1370l-57 55q-22 20 -38.5 29.5t-29.5 9.5q-38 0 -56 -36.5t-20 -118.5h-125q2 135 53 208.5t142 73.5q38 0 70 -14t69 -47l57 -55q22 -20 38.5 -29.5t29.5 -9.5q38 0 56 36.5t20 118.5 h125q-2 -135 -53 -208.5t-142 -73.5q-38 0 -70 14t-69 47z" />
<glyph unicode="&#xe4;" horiz-adv-x="1255" d="M702 563q-223 0 -309 -51t-86 -174q0 -98 64.5 -155.5t175.5 -57.5q153 0 245.5 108.5t92.5 288.5v41h-183zM1069 639v-639h-184v170q-63 -102 -157 -150.5t-230 -48.5q-172 0 -273.5 96.5t-101.5 258.5q0 189 126.5 285t377.5 96h258v18q0 127 -83.5 196.5t-234.5 69.5 q-96 0 -187 -23t-175 -69v170q101 39 196 58.5t185 19.5q243 0 363 -126t120 -382zM688 1552h203v-202h-203v202zM297 1552h203v-202h-203v202z" />
<glyph unicode="&#xe5;" horiz-adv-x="1255" d="M702 563q-223 0 -309 -51t-86 -174q0 -98 64.5 -155.5t175.5 -57.5q153 0 245.5 108.5t92.5 288.5v41h-183zM1069 639v-639h-184v170q-63 -102 -157 -150.5t-230 -48.5q-172 0 -273.5 96.5t-101.5 258.5q0 189 126.5 285t377.5 96h258v18q0 127 -83.5 196.5t-234.5 69.5 q-96 0 -187 -23t-175 -69v170q101 39 196 58.5t185 19.5q243 0 363 -126t120 -382zM746 1524q0 63 -44 107t-108 44q-65 0 -108.5 -43.5t-43.5 -107.5q0 -65 43.5 -108.5t108.5 -43.5q64 0 108 44t44 108zM868 1524q0 -115 -79.5 -195t-194.5 -80t-194.5 80t-79.5 195 t79.5 194.5t194.5 79.5t194.5 -79.5t79.5 -194.5z" />
<glyph unicode="&#xe6;" horiz-adv-x="2011" d="M1718 660q-1 151 -83.5 241t-219.5 90q-153 0 -245.5 -87t-106.5 -245zM995 963q74 90 180 137t238 47q226 0 358 -145.5t132 -395.5v-90h-846q12 -191 114 -291t285 -100q104 0 204 26.5t200 79.5v-174q-100 -42 -204 -64t-210 -22q-167 0 -291 60.5t-201 179.5 q-73 -120 -181 -180t-251 -60q-189 0 -294 93.5t-105 261.5q0 189 126.5 285t377.5 96h258v18q0 127 -83.5 196.5t-234.5 69.5q-96 0 -187 -23t-175 -69v170q101 39 196 58.5t185 19.5q142 0 248.5 -48t160.5 -136zM702 563q-223 0 -309 -51t-86 -174q0 -98 64.5 -155.5 t175.5 -57.5q153 0 245.5 108.5t92.5 288.5v41h-183z" />
<glyph unicode="&#xe7;" horiz-adv-x="1126" d="M999 1077v-172q-78 43 -156.5 64.5t-158.5 21.5q-179 0 -278 -113.5t-99 -318.5t99 -318.5t278 -113.5q80 0 158.5 21.5t156.5 64.5v-170q-77 -36 -159.5 -54t-175.5 -18q-253 0 -402 159t-149 429q0 274 150.5 431t412.5 157q85 0 166 -17.5t157 -52.5zM739 0 q55 -62 82 -114.5t27 -100.5q0 -89 -60 -134.5t-178 -45.5q-46 0 -89.5 6t-86.5 18v131q34 -17 71 -24.5t84 -7.5q59 0 89 24t30 70q0 30 -21.5 73.5t-66.5 104.5h119z" />
<glyph unicode="&#xe8;" horiz-adv-x="1260" d="M1151 606v-90h-846q12 -190 114.5 -289.5t285.5 -99.5q106 0 205.5 26t197.5 78v-174q-99 -42 -203 -64t-211 -22q-268 0 -424.5 156t-156.5 422q0 275 148.5 436.5t400.5 161.5q226 0 357.5 -145.5t131.5 -395.5zM967 660q-2 151 -84.5 241t-218.5 90q-154 0 -246.5 -87 t-106.5 -245zM506 1638l282 -374h-153l-326 374h197z" />
<glyph unicode="&#xe9;" horiz-adv-x="1260" d="M1151 606v-90h-846q12 -190 114.5 -289.5t285.5 -99.5q106 0 205.5 26t197.5 78v-174q-99 -42 -203 -64t-211 -22q-268 0 -424.5 156t-156.5 422q0 275 148.5 436.5t400.5 161.5q226 0 357.5 -145.5t131.5 -395.5zM967 660q-2 151 -84.5 241t-218.5 90q-154 0 -246.5 -87 t-106.5 -245zM790 1638h199l-326 -376h-153z" />
<glyph unicode="&#xea;" horiz-adv-x="1260" d="M1151 606v-90h-846q12 -190 114.5 -289.5t285.5 -99.5q106 0 205.5 26t197.5 78v-174q-99 -42 -203 -64t-211 -22q-268 0 -424.5 156t-156.5 422q0 275 148.5 436.5t400.5 161.5q226 0 357.5 -145.5t131.5 -395.5zM967 660q-2 151 -84.5 241t-218.5 90q-154 0 -246.5 -87 t-106.5 -245zM577 1638h148l245 -376h-139l-180 245l-180 -245h-139z" />
<glyph unicode="&#xeb;" horiz-adv-x="1260" d="M1151 606v-90h-846q12 -190 114.5 -289.5t285.5 -99.5q106 0 205.5 26t197.5 78v-174q-99 -42 -203 -64t-211 -22q-268 0 -424.5 156t-156.5 422q0 275 148.5 436.5t400.5 161.5q226 0 357.5 -145.5t131.5 -395.5zM967 660q-2 151 -84.5 241t-218.5 90q-154 0 -246.5 -87 t-106.5 -245zM745 1552h203v-202h-203v202zM354 1552h203v-202h-203v202z" />
<glyph unicode="&#xec;" horiz-adv-x="569" d="M140 1638l282 -374h-153l-326 374h197zM193 1120h184v-1120h-184v1120zM285 1147z" />
<glyph unicode="&#xed;" horiz-adv-x="569" d="M424 1638h199l-326 -376h-153zM193 1120h184v-1120h-184v1120zM285 1147z" />
<glyph unicode="&#xee;" horiz-adv-x="569" d="M193 1120h184v-1120h-184v1120zM285 1147zM211 1638h148l245 -376h-139l-180 245l-180 -245h-139z" />
<glyph unicode="&#xef;" horiz-adv-x="569" d="M193 1120h184v-1120h-184v1120zM285 1147zM379 1552h203v-202h-203v202zM-12 1552h203v-202h-203v202z" />
<glyph unicode="&#xf0;" horiz-adv-x="1253" d="M838 915q-50 17 -94 25t-85 8q-167 0 -259.5 -108t-92.5 -303q0 -188 87 -299t233 -111q145 0 232 111t87 299q0 122 -27 216t-81 162zM901 1141q126 -143 183 -287t57 -317q0 -255 -142 -410.5t-372 -155.5q-231 0 -372.5 155.5t-141.5 410.5q0 250 138 405.5t359 155.5 q18 0 44 -2.5t68 -7.5l-159 180l-319 -107l-33 99l281 92l-181 204h228l127 -145l333 111l33 -97l-295 -98z" />
<glyph unicode="&#xf1;" horiz-adv-x="1298" d="M1124 676v-676h-184v670q0 159 -62 238t-186 79q-149 0 -235 -95t-86 -259v-633h-185v1120h185v-174q66 101 155.5 151t206.5 50q193 0 292 -119.5t99 -351.5zM660 1370l-57 55q-22 20 -38.5 29.5t-29.5 9.5q-38 0 -56 -36.5t-20 -118.5h-125q2 135 53 208.5t142 73.5 q38 0 70 -14t69 -47l57 -55q22 -20 38.5 -29.5t29.5 -9.5q38 0 56 36.5t20 118.5h125q-2 -135 -53 -208.5t-142 -73.5q-38 0 -70 14t-69 47z" />
<glyph unicode="&#xf2;" horiz-adv-x="1253" d="M627 991q-148 0 -234 -115.5t-86 -316.5t85.5 -316.5t234.5 -115.5q147 0 233 116t86 316q0 199 -86 315.5t-233 116.5zM627 1147q240 0 377 -156t137 -432q0 -275 -137 -431.5t-377 -156.5q-241 0 -377.5 156.5t-136.5 431.5q0 276 136.5 432t377.5 156zM482 1638 l282 -374h-153l-326 374h197z" />
<glyph unicode="&#xf3;" horiz-adv-x="1253" d="M627 991q-148 0 -234 -115.5t-86 -316.5t85.5 -316.5t234.5 -115.5q147 0 233 116t86 316q0 199 -86 315.5t-233 116.5zM627 1147q240 0 377 -156t137 -432q0 -275 -137 -431.5t-377 -156.5q-241 0 -377.5 156.5t-136.5 431.5q0 276 136.5 432t377.5 156zM766 1638h199 l-326 -376h-153z" />
<glyph unicode="&#xf4;" horiz-adv-x="1253" d="M627 991q-148 0 -234 -115.5t-86 -316.5t85.5 -316.5t234.5 -115.5q147 0 233 116t86 316q0 199 -86 315.5t-233 116.5zM627 1147q240 0 377 -156t137 -432q0 -275 -137 -431.5t-377 -156.5q-241 0 -377.5 156.5t-136.5 431.5q0 276 136.5 432t377.5 156zM553 1638h148 l245 -376h-139l-180 245l-180 -245h-139z" />
<glyph unicode="&#xf5;" horiz-adv-x="1253" d="M627 991q-148 0 -234 -115.5t-86 -316.5t85.5 -316.5t234.5 -115.5q147 0 233 116t86 316q0 199 -86 315.5t-233 116.5zM627 1147q240 0 377 -156t137 -432q0 -275 -137 -431.5t-377 -156.5q-241 0 -377.5 156.5t-136.5 431.5q0 276 136.5 432t377.5 156zM623 1370 l-57 55q-22 20 -38.5 29.5t-29.5 9.5q-38 0 -56 -36.5t-20 -118.5h-125q2 135 53 208.5t142 73.5q38 0 70 -14t69 -47l57 -55q22 -20 38.5 -29.5t29.5 -9.5q38 0 56 36.5t20 118.5h125q-2 -135 -53 -208.5t-142 -73.5q-38 0 -70 14t-69 47z" />
<glyph unicode="&#xf6;" horiz-adv-x="1253" d="M627 991q-148 0 -234 -115.5t-86 -316.5t85.5 -316.5t234.5 -115.5q147 0 233 116t86 316q0 199 -86 315.5t-233 116.5zM627 1147q240 0 377 -156t137 -432q0 -275 -137 -431.5t-377 -156.5q-241 0 -377.5 156.5t-136.5 431.5q0 276 136.5 432t377.5 156zM721 1552h203 v-202h-203v202zM330 1552h203v-202h-203v202z" />
<glyph unicode="&#xf7;" horiz-adv-x="1716" d="M735 1135h246v-246h-246v246zM735 395h246v-245h-246v245zM217 727h1282v-170h-1282v170z" />
<glyph unicode="&#xf8;" horiz-adv-x="1253" d="M905 801l-487 -592q41 -42 92.5 -62t116.5 -20q147 0 233 116t86 316q0 79 -10 137.5t-31 104.5zM834 909q-42 41 -93.5 61.5t-113.5 20.5q-151 0 -235.5 -117.5t-84.5 -328.5q0 -72 9.5 -127t29.5 -101zM221 166q-54 77 -81 175.5t-27 217.5q0 276 136.5 432t377.5 156 q93 0 172.5 -25.5t146.5 -77.5l139 168l95 -79l-146 -179q53 -77 80 -176t27 -219q0 -275 -137 -431.5t-377 -156.5q-96 0 -176.5 26t-143.5 77l-139 -168l-96 78z" />
<glyph unicode="&#xf9;" horiz-adv-x="1298" d="M174 442v678h184v-671q0 -159 62 -238.5t186 -79.5q149 0 235.5 95t86.5 259v635h184v-1120h-184v172q-67 -102 -155.5 -151.5t-205.5 -49.5q-193 0 -293 120t-100 351zM637 1147zM490 1638l282 -374h-153l-326 374h197z" />
<glyph unicode="&#xfa;" horiz-adv-x="1298" d="M174 442v678h184v-671q0 -159 62 -238.5t186 -79.5q149 0 235.5 95t86.5 259v635h184v-1120h-184v172q-67 -102 -155.5 -151.5t-205.5 -49.5q-193 0 -293 120t-100 351zM637 1147zM774 1638h199l-326 -376h-153z" />
<glyph unicode="&#xfb;" horiz-adv-x="1298" d="M174 442v678h184v-671q0 -159 62 -238.5t186 -79.5q149 0 235.5 95t86.5 259v635h184v-1120h-184v172q-67 -102 -155.5 -151.5t-205.5 -49.5q-193 0 -293 120t-100 351zM637 1147zM561 1638h148l245 -376h-139l-180 245l-180 -245h-139z" />
<glyph unicode="&#xfc;" horiz-adv-x="1298" d="M174 442v678h184v-671q0 -159 62 -238.5t186 -79.5q149 0 235.5 95t86.5 259v635h184v-1120h-184v172q-67 -102 -155.5 -151.5t-205.5 -49.5q-193 0 -293 120t-100 351zM637 1147zM729 1552h203v-202h-203v202zM338 1552h203v-202h-203v202z" />
<glyph unicode="&#xfd;" horiz-adv-x="1212" d="M659 -104q-78 -200 -152 -261t-198 -61h-147v154h108q76 0 118 36t93 170l33 84l-453 1102h195l350 -876l350 876h195zM745 1638h199l-326 -376h-153z" />
<glyph unicode="&#xfe;" horiz-adv-x="1300" d="M371 168v-594h-185v1982h185v-606q58 100 146.5 148.5t211.5 48.5q204 0 331.5 -162t127.5 -426t-127.5 -426t-331.5 -162q-123 0 -211.5 48.5t-146.5 148.5zM997 559q0 203 -83.5 318.5t-229.5 115.5t-229.5 -115.5t-83.5 -318.5t83.5 -318.5t229.5 -115.5t229.5 115.5 t83.5 318.5z" />
<glyph unicode="&#xff;" horiz-adv-x="1212" d="M659 -104q-78 -200 -152 -261t-198 -61h-147v154h108q76 0 118 36t93 170l33 84l-453 1102h195l350 -876l350 876h195zM700 1552h203v-202h-203v202zM309 1552h203v-202h-203v202z" />
<glyph unicode="&#x100;" horiz-adv-x="1401" d="M401 1841h598v-148h-598v148zM700 1294l-274 -743h549zM586 1493h229l569 -1493h-210l-136 383h-673l-136 -383h-213z" />
<glyph unicode="&#x101;" horiz-adv-x="1255" d="M287 1526h598v-148h-598v148zM702 563q-223 0 -309 -51t-86 -174q0 -98 64.5 -155.5t175.5 -57.5q153 0 245.5 108.5t92.5 288.5v41h-183zM1069 639v-639h-184v170q-63 -102 -157 -150.5t-230 -48.5q-172 0 -273.5 96.5t-101.5 258.5q0 189 126.5 285t377.5 96h258v18 q0 127 -83.5 196.5t-234.5 69.5q-96 0 -187 -23t-175 -69v170q101 39 196 58.5t185 19.5q243 0 363 -126t120 -382z" />
<glyph unicode="&#x102;" horiz-adv-x="1401" d="M405 1938h118q11 -75 59.5 -112.5t135.5 -37.5q86 0 134 37t61 113h118q-10 -143 -89 -215t-224 -72t-224 72t-89 215zM700 1294l-274 -743h549zM586 1493h229l569 -1493h-210l-136 383h-673l-136 -383h-213z" />
<glyph unicode="&#x103;" horiz-adv-x="1255" d="M278 1567h118q11 -75 59.5 -112.5t135.5 -37.5q86 0 134 37t61 113h118q-10 -143 -89 -215t-224 -72t-224 72t-89 215zM702 563q-223 0 -309 -51t-86 -174q0 -98 64.5 -155.5t175.5 -57.5q153 0 245.5 108.5t92.5 288.5v41h-183zM1069 639v-639h-184v170 q-63 -102 -157 -150.5t-230 -48.5q-172 0 -273.5 96.5t-101.5 258.5q0 189 126.5 285t377.5 96h258v18q0 127 -83.5 196.5t-234.5 69.5q-96 0 -187 -23t-175 -69v170q101 39 196 58.5t185 19.5q243 0 363 -126t120 -382z" />
<glyph unicode="&#x104;" horiz-adv-x="1401" d="M700 1294l-274 -743h549zM586 1493h229l569 -1493h-210l-136 383h-673l-136 -383h-213zM1180 0h119q-45 -61 -66.5 -105t-21.5 -75q0 -46 27.5 -69t81.5 -23q32 0 63 7.5t62 22.5v-133q-38 -10 -72 -15t-64 -5q-122 0 -179.5 43.5t-57.5 136.5q0 48 26.5 100.5 t81.5 114.5z" />
<glyph unicode="&#x105;" horiz-adv-x="1255" d="M702 563q-223 0 -309 -51t-86 -174q0 -98 64.5 -155.5t175.5 -57.5q153 0 245.5 108.5t92.5 288.5v41h-183zM1069 639v-639h-184v170q-63 -102 -157 -150.5t-230 -48.5q-172 0 -273.5 96.5t-101.5 258.5q0 189 126.5 285t377.5 96h258v18q0 127 -83.5 196.5t-234.5 69.5 q-96 0 -187 -23t-175 -69v170q101 39 196 58.5t185 19.5q243 0 363 -126t120 -382zM887 0h119q-45 -61 -66.5 -105t-21.5 -75q0 -46 27.5 -69t81.5 -23q32 0 63 7.5t62 22.5v-133q-38 -10 -72 -15t-64 -5q-122 0 -179.5 43.5t-57.5 136.5q0 48 26.5 100.5t81.5 114.5z" />
<glyph unicode="&#x106;" horiz-adv-x="1430" d="M1319 1378v-213q-102 95 -217.5 142t-245.5 47q-256 0 -392 -156.5t-136 -452.5q0 -295 136 -451.5t392 -156.5q130 0 245.5 47t217.5 142v-211q-106 -72 -224.5 -108t-250.5 -36q-339 0 -534 207.5t-195 566.5q0 360 195 567.5t534 207.5q134 0 252.5 -35.5 t222.5 -106.5zM868 1899h185l-228 -264h-153z" />
<glyph unicode="&#x107;" horiz-adv-x="1126" d="M999 1077v-172q-78 43 -156.5 64.5t-158.5 21.5q-179 0 -278 -113.5t-99 -318.5t99 -318.5t278 -113.5q80 0 158.5 21.5t156.5 64.5v-170q-77 -36 -159.5 -54t-175.5 -18q-253 0 -402 159t-149 429q0 274 150.5 431t412.5 157q85 0 166 -17.5t157 -52.5zM788 1638h199 l-326 -376h-153z" />
<glyph unicode="&#x108;" horiz-adv-x="1430" d="M750 1901h188l211 -266h-139l-166 178l-166 -178h-139zM1319 1378v-213q-102 95 -217.5 142t-245.5 47q-256 0 -392 -156.5t-136 -452.5q0 -295 136 -451.5t392 -156.5q130 0 245.5 47t217.5 142v-211q-106 -72 -224.5 -108t-250.5 -36q-339 0 -534 207.5t-195 566.5 q0 360 195 567.5t534 207.5q134 0 252.5 -35.5t222.5 -106.5z" />
<glyph unicode="&#x109;" horiz-adv-x="1126" d="M999 1077v-172q-78 43 -156.5 64.5t-158.5 21.5q-179 0 -278 -113.5t-99 -318.5t99 -318.5t278 -113.5q80 0 158.5 21.5t156.5 64.5v-170q-77 -36 -159.5 -54t-175.5 -18q-253 0 -402 159t-149 429q0 274 150.5 431t412.5 157q85 0 166 -17.5t157 -52.5zM602 1638h148 l245 -376h-139l-180 245l-180 -245h-139z" />
<glyph unicode="&#x10a;" horiz-adv-x="1430" d="M742 1872h204v-205h-204v205zM1319 1378v-213q-102 95 -217.5 142t-245.5 47q-256 0 -392 -156.5t-136 -452.5q0 -295 136 -451.5t392 -156.5q130 0 245.5 47t217.5 142v-211q-106 -72 -224.5 -108t-250.5 -36q-339 0 -534 207.5t-195 566.5q0 360 195 567.5t534 207.5 q134 0 252.5 -35.5t222.5 -106.5z" />
<glyph unicode="&#x10b;" horiz-adv-x="1126" d="M582 1556h184v-233h-184v233zM676 1147zM999 1077v-172q-78 43 -156.5 64.5t-158.5 21.5q-179 0 -278 -113.5t-99 -318.5t99 -318.5t278 -113.5q80 0 158.5 21.5t156.5 64.5v-170q-77 -36 -159.5 -54t-175.5 -18q-253 0 -402 159t-149 429q0 274 150.5 431t412.5 157 q85 0 166 -17.5t157 -52.5z" />
<glyph unicode="&#x10c;" horiz-adv-x="1430" d="M1319 1378v-213q-102 95 -217.5 142t-245.5 47q-256 0 -392 -156.5t-136 -452.5q0 -295 136 -451.5t392 -156.5q130 0 245.5 47t217.5 142v-211q-106 -72 -224.5 -108t-250.5 -36q-339 0 -534 207.5t-195 566.5q0 360 195 567.5t534 207.5q134 0 252.5 -35.5 t222.5 -106.5zM719 1635l-211 266h139l166 -178l166 178h139l-211 -266h-188z" />
<glyph unicode="&#x10d;" horiz-adv-x="1126" d="M999 1077v-172q-78 43 -156.5 64.5t-158.5 21.5q-179 0 -278 -113.5t-99 -318.5t99 -318.5t278 -113.5q80 0 158.5 21.5t156.5 64.5v-170q-77 -36 -159.5 -54t-175.5 -18q-253 0 -402 159t-149 429q0 274 150.5 431t412.5 157q85 0 166 -17.5t157 -52.5zM575 1262 l-245 376h139l180 -245l180 245h139l-245 -376h-148z" />
<glyph unicode="&#x10e;" horiz-adv-x="1577" d="M654 1635l-211 266h139l166 -178l166 178h139l-211 -266h-188zM403 1327v-1161h244q309 0 452.5 140t143.5 442q0 300 -143.5 439.5t-452.5 139.5h-244zM201 1493h415q434 0 637 -180.5t203 -564.5q0 -386 -204 -567t-636 -181h-415v1493z" />
<glyph unicode="&#x10f;" horiz-adv-x="1300" d="M930 950v606h184v-1556h-184v168q-58 -100 -146.5 -148.5t-212.5 -48.5q-203 0 -330.5 162t-127.5 426t127.5 426t330.5 162q124 0 212.5 -48.5t146.5 -148.5zM303 559q0 -203 83.5 -318.5t229.5 -115.5t230 115.5t84 318.5t-84 318.5t-230 115.5t-229.5 -115.5 t-83.5 -318.5zM1300 1554h199l-117 -376h-153z" />
<glyph unicode="&#x110;" horiz-adv-x="1587" d="M211 1493h416q433 0 636 -180.5t203 -564.5q0 -386 -203.5 -567t-635.5 -181h-416v700h-201v144h201v649zM414 1327v-483h336v-144h-336v-534h243q309 0 452.5 140t143.5 442q0 300 -143.5 439.5t-452.5 139.5h-243z" />
<glyph unicode="&#x111;" horiz-adv-x="1300" d="M930 950v334h-326v125h326v147h184v-147h154v-125h-154v-1284h-184v168q-58 -100 -146.5 -148.5t-212.5 -48.5q-203 0 -330.5 162t-127.5 426t127.5 426t330.5 162q124 0 212.5 -48.5t146.5 -148.5zM303 559q0 -203 83.5 -318.5t229.5 -115.5t230 115.5t84 318.5 t-84 318.5t-230 115.5t-229.5 -115.5t-83.5 -318.5z" />
<glyph unicode="&#x112;" horiz-adv-x="1294" d="M201 1493h944v-170h-742v-442h711v-170h-711v-541h760v-170h-962v1493zM374 1843h598v-148h-598v148z" />
<glyph unicode="&#x113;" horiz-adv-x="1260" d="M363 1526h598v-148h-598v148zM1151 606v-90h-846q12 -190 114.5 -289.5t285.5 -99.5q106 0 205.5 26t197.5 78v-174q-99 -42 -203 -64t-211 -22q-268 0 -424.5 156t-156.5 422q0 275 148.5 436.5t400.5 161.5q226 0 357.5 -145.5t131.5 -395.5zM967 660q-2 151 -84.5 241 t-218.5 90q-154 0 -246.5 -87t-106.5 -245z" />
<glyph unicode="&#x114;" horiz-adv-x="1294" d="M360 1901h118q13 -54 62.5 -82.5t132.5 -28.5q82 0 130.5 27.5t64.5 83.5h118q-10 -119 -90 -180.5t-223 -61.5q-144 0 -223.5 61t-89.5 181zM201 1493h944v-170h-742v-442h711v-170h-711v-541h760v-170h-962v1493z" />
<glyph unicode="&#x115;" horiz-adv-x="1260" d="M349 1608h118q11 -75 59.5 -112.5t135.5 -37.5q86 0 134 37t61 113h118q-10 -143 -89 -215t-224 -72t-224 72t-89 215zM1151 606v-90h-846q12 -190 114.5 -289.5t285.5 -99.5q106 0 205.5 26t197.5 78v-174q-99 -42 -203 -64t-211 -22q-268 0 -424.5 156t-156.5 422 q0 275 148.5 436.5t400.5 161.5q226 0 357.5 -145.5t131.5 -395.5zM967 660q-2 151 -84.5 241t-218.5 90q-154 0 -246.5 -87t-106.5 -245z" />
<glyph unicode="&#x116;" horiz-adv-x="1294" d="M568 1872h204v-205h-204v205zM201 1493h944v-170h-742v-442h711v-170h-711v-541h760v-170h-962v1493z" />
<glyph unicode="&#x117;" horiz-adv-x="1260" d="M568 1556h184v-233h-184v233zM662 1147zM1151 606v-90h-846q12 -190 114.5 -289.5t285.5 -99.5q106 0 205.5 26t197.5 78v-174q-99 -42 -203 -64t-211 -22q-268 0 -424.5 156t-156.5 422q0 275 148.5 436.5t400.5 161.5q226 0 357.5 -145.5t131.5 -395.5zM967 660 q-2 151 -84.5 241t-218.5 90q-154 0 -246.5 -87t-106.5 -245z" />
<glyph unicode="&#x118;" horiz-adv-x="1294" d="M201 1493h944v-170h-742v-442h711v-170h-711v-541h760v-170h-962v1493zM900 0h119q-45 -61 -66.5 -105t-21.5 -75q0 -46 27.5 -69t81.5 -23q32 0 63 7.5t62 22.5v-133q-38 -10 -72 -15t-64 -5q-122 0 -179.5 43.5t-57.5 136.5q0 48 26.5 100.5t81.5 114.5z" />
<glyph unicode="&#x119;" horiz-adv-x="1260" d="M1151 606v-90h-846q12 -190 114.5 -289.5t285.5 -99.5q106 0 205.5 26t197.5 78v-174q-99 -42 -203 -64t-211 -22q-268 0 -424.5 156t-156.5 422q0 275 148.5 436.5t400.5 161.5q226 0 357.5 -145.5t131.5 -395.5zM967 660q-2 151 -84.5 241t-218.5 90q-154 0 -246.5 -87 t-106.5 -245zM816 0h119q-45 -61 -66.5 -105t-21.5 -75q0 -46 27.5 -69t81.5 -23q32 0 63 7.5t62 22.5v-133q-38 -10 -72 -15t-64 -5q-122 0 -179.5 43.5t-57.5 136.5q0 48 26.5 100.5t81.5 114.5z" />
<glyph unicode="&#x11a;" horiz-adv-x="1294" d="M201 1493h944v-170h-742v-442h711v-170h-711v-541h760v-170h-962v1493zM584 1629l-211 266h139l166 -178l166 178h139l-211 -266h-188z" />
<glyph unicode="&#x11b;" horiz-adv-x="1260" d="M1151 606v-90h-846q12 -190 114.5 -289.5t285.5 -99.5q106 0 205.5 26t197.5 78v-174q-99 -42 -203 -64t-211 -22q-268 0 -424.5 156t-156.5 422q0 275 148.5 436.5t400.5 161.5q226 0 357.5 -145.5t131.5 -395.5zM967 660q-2 151 -84.5 241t-218.5 90q-154 0 -246.5 -87 t-106.5 -245zM586 1257l-245 376h139l180 -245l180 245h139l-245 -376h-148z" />
<glyph unicode="&#x11c;" horiz-adv-x="1587" d="M766 1901h188l211 -266h-139l-166 178l-166 -178h-139zM1219 213v401h-330v166h530v-641q-117 -83 -258 -125.5t-301 -42.5q-350 0 -547.5 204.5t-197.5 569.5q0 366 197.5 570.5t547.5 204.5q146 0 277.5 -36t242.5 -106v-215q-112 95 -238 143t-265 48 q-274 0 -411.5 -153t-137.5 -456q0 -302 137.5 -455t411.5 -153q107 0 191 18.5t151 57.5z" />
<glyph unicode="&#x11d;" horiz-adv-x="1300" d="M542 1638h148l245 -376h-139l-180 245l-180 -245h-139zM930 573q0 200 -82.5 310t-231.5 110q-148 0 -230.5 -110t-82.5 -310q0 -199 82.5 -309t230.5 -110q149 0 231.5 110t82.5 309zM1114 139q0 -286 -127 -425.5t-389 -139.5q-97 0 -183 14.5t-167 44.5v179 q81 -44 160 -65t161 -21q181 0 271 94.5t90 285.5v91q-57 -99 -146 -148t-213 -49q-206 0 -332 157t-126 416q0 260 126 417t332 157q124 0 213 -49t146 -148v170h184v-981z" />
<glyph unicode="&#x11e;" horiz-adv-x="1587" d="M1219 213v401h-330v166h530v-641q-117 -83 -258 -125.5t-301 -42.5q-350 0 -547.5 204.5t-197.5 569.5q0 366 197.5 570.5t547.5 204.5q146 0 277.5 -36t242.5 -106v-215q-112 95 -238 143t-265 48q-274 0 -411.5 -153t-137.5 -456q0 -302 137.5 -455t411.5 -153 q107 0 191 18.5t151 57.5zM482 1901h118q13 -54 62.5 -82.5t132.5 -28.5q82 0 130.5 27.5t64.5 83.5h118q-10 -119 -90 -180.5t-223 -61.5q-144 0 -223.5 61t-89.5 181z" />
<glyph unicode="&#x11f;" horiz-adv-x="1300" d="M930 573q0 200 -82.5 310t-231.5 110q-148 0 -230.5 -110t-82.5 -310q0 -199 82.5 -309t230.5 -110q149 0 231.5 110t82.5 309zM1114 139q0 -286 -127 -425.5t-389 -139.5q-97 0 -183 14.5t-167 44.5v179q81 -44 160 -65t161 -21q181 0 271 94.5t90 285.5v91 q-57 -99 -146 -148t-213 -49q-206 0 -332 157t-126 416q0 260 126 417t332 157q124 0 213 -49t146 -148v170h184v-981zM338 1608h118q11 -75 59.5 -112.5t135.5 -37.5q86 0 134 37t61 113h118q-10 -143 -89 -215t-224 -72t-224 72t-89 215z" />
<glyph unicode="&#x120;" horiz-adv-x="1587" d="M758 1872h204v-205h-204v205zM1219 213v401h-330v166h530v-641q-117 -83 -258 -125.5t-301 -42.5q-350 0 -547.5 204.5t-197.5 569.5q0 366 197.5 570.5t547.5 204.5q146 0 277.5 -36t242.5 -106v-215q-112 95 -238 143t-265 48q-274 0 -411.5 -153t-137.5 -456 q0 -302 137.5 -455t411.5 -153q107 0 191 18.5t151 57.5z" />
<glyph unicode="&#x121;" horiz-adv-x="1300" d="M524 1556h184v-233h-184v233zM618 1147zM930 573q0 200 -82.5 310t-231.5 110q-148 0 -230.5 -110t-82.5 -310q0 -199 82.5 -309t230.5 -110q149 0 231.5 110t82.5 309zM1114 139q0 -286 -127 -425.5t-389 -139.5q-97 0 -183 14.5t-167 44.5v179q81 -44 160 -65t161 -21 q181 0 271 94.5t90 285.5v91q-57 -99 -146 -148t-213 -49q-206 0 -332 157t-126 416q0 260 126 417t332 157q124 0 213 -49t146 -148v170h184v-981z" />
<glyph unicode="&#x122;" horiz-adv-x="1587" d="M794 -191h211l-164 -320h-129zM1219 213v401h-330v166h530v-641q-117 -83 -258 -125.5t-301 -42.5q-350 0 -547.5 204.5t-197.5 569.5q0 366 197.5 570.5t547.5 204.5q146 0 277.5 -36t242.5 -106v-215q-112 95 -238 143t-265 48q-274 0 -411.5 -153t-137.5 -456 q0 -302 137.5 -455t411.5 -153q107 0 191 18.5t151 57.5z" />
<glyph unicode="&#x123;" horiz-adv-x="1300" d="M722 1269h-211l164 319h129zM930 573q0 200 -82.5 310t-231.5 110q-148 0 -230.5 -110t-82.5 -310q0 -199 82.5 -309t230.5 -110q149 0 231.5 110t82.5 309zM1114 139q0 -286 -127 -425.5t-389 -139.5q-97 0 -183 14.5t-167 44.5v179q81 -44 160 -65t161 -21 q181 0 271 94.5t90 285.5v91q-57 -99 -146 -148t-213 -49q-206 0 -332 157t-126 416q0 260 126 417t332 157q124 0 213 -49t146 -148v170h184v-981z" />
<glyph unicode="&#x124;" horiz-adv-x="1540" d="M676 1901h188l211 -266h-139l-166 178l-166 -178h-139zM201 1493h202v-612h734v612h202v-1493h-202v711h-734v-711h-202v1493z" />
<glyph unicode="&#x125;" horiz-adv-x="1298" d="M184 1901h188l211 -266h-139l-166 178l-166 -178h-139zM1124 676v-676h-184v670q0 159 -62 238t-186 79q-149 0 -235 -95t-86 -259v-633h-185v1556h185v-610q66 101 155.5 151t206.5 50q193 0 292 -119.5t99 -351.5z" />
<glyph unicode="&#x126;" horiz-adv-x="1876" d="M369 1493h202v-224h734v224h202v-224h168v-164h-168v-1105h-202v711h-734v-711h-202v1105h-168v164h168v224zM571 1105v-224h734v224h-734z" />
<glyph unicode="&#x127;" horiz-adv-x="1423" d="M1183 676v-676h-184v670q0 159 -62 238t-186 79q-149 0 -235 -95t-86 -259v-633h-185v1270h-125v164h125v122h185v-122h352v-164h-352v-324q66 101 155.5 151t206.5 50q193 0 292 -119.5t99 -351.5z" />
<glyph unicode="&#x128;" horiz-adv-x="604" d="M298 1710l-57 33q-25 14 -40.5 19.5t-27.5 5.5q-36 0 -56 -25t-20 -70v-6h-125q0 101 51.5 160t137.5 59q36 0 66.5 -8t78.5 -35l57 -30q23 -13 40 -19t32 -6q32 0 52 25.5t20 66.5v6h125q-2 -100 -53.5 -159.5t-135.5 -59.5q-34 0 -63.5 8t-81.5 35zM201 1493h202v-1493 h-202v1493z" />
<glyph unicode="&#x129;" horiz-adv-x="569" d="M281 1370l-57 55q-22 20 -38.5 29.5t-29.5 9.5q-38 0 -56 -36.5t-20 -118.5h-125q2 135 53 208.5t142 73.5q38 0 70 -14t69 -47l57 -55q22 -20 38.5 -29.5t29.5 -9.5q38 0 56 36.5t20 118.5h125q-2 -135 -53 -208.5t-142 -73.5q-38 0 -70 14t-69 47zM193 1120h184v-1120 h-184v1120zM285 1147z" />
<glyph unicode="&#x12a;" horiz-adv-x="604" d="M3 1841h598v-148h-598v148zM201 1493h202v-1493h-202v1493z" />
<glyph unicode="&#x12b;" horiz-adv-x="569" d="M-14 1525h598v-148h-598v148zM193 1120h184v-1120h-184v1120zM285 1147z" />
<glyph unicode="&#x12c;" horiz-adv-x="604" d="M-11 1901h118q13 -54 62.5 -82.5t132.5 -28.5q82 0 130.5 27.5t64.5 83.5h118q-10 -119 -90 -180.5t-223 -61.5q-144 0 -223.5 61t-89.5 181zM201 1493h202v-1493h-202v1493z" />
<glyph unicode="&#x12d;" horiz-adv-x="569" d="M-28 1608h118q11 -75 59.5 -112.5t135.5 -37.5q86 0 134 37t61 113h118q-10 -143 -89 -215t-224 -72t-224 72t-89 215zM193 1120h184v-1120h-184v1120zM285 1147z" />
<glyph unicode="&#x12e;" horiz-adv-x="604" d="M284 0h119q-45 -61 -66.5 -105t-21.5 -75q0 -46 27.5 -69t81.5 -23q32 0 63 7.5t62 22.5v-133q-38 -10 -72 -15t-64 -5q-122 0 -179.5 43.5t-57.5 136.5q0 48 26.5 100.5t81.5 114.5zM201 1493h202v-1493h-202v1493z" />
<glyph unicode="&#x12f;" horiz-adv-x="569" d="M258 0h119q-45 -61 -66.5 -105t-21.5 -75q0 -46 27.5 -69t81.5 -23q32 0 63 7.5t62 22.5v-133q-38 -10 -72 -15t-64 -5q-122 0 -179.5 43.5t-57.5 136.5q0 48 26.5 100.5t81.5 114.5zM193 1120h184v-1120h-184v1120zM193 1556h184v-233h-184v233z" />
<glyph unicode="&#x130;" horiz-adv-x="604" d="M201 1493h202v-1493h-202v1493zM201 1872h204v-205h-204v205z" />
<glyph unicode="&#x131;" horiz-adv-x="569" d="M193 1120h184v-1120h-184v1120zM285 1147z" />
<glyph unicode="&#x132;" horiz-adv-x="1208" d="M805 1493h202v-1389q0 -270 -102.5 -392t-329.5 -122h-77v170h63q134 0 189 75t55 269v1389zM201 1493h202v-1493h-202v1493z" />
<glyph unicode="&#x133;" horiz-adv-x="1138" d="M761 1120h184v-1140q0 -214 -81.5 -310t-262.5 -96h-70v156h49q105 0 143 48.5t38 201.5v1140zM761 1556h184v-233h-184v233zM193 1120h184v-1120h-184v1120zM193 1556h184v-233h-184v233z" />
<glyph unicode="&#x134;" horiz-adv-x="604" d="M208 1901h188l211 -266h-139l-166 178l-166 -178h-139zM201 1493h202v-1389q0 -270 -102.5 -392t-329.5 -122h-77v170h63q134 0 189 75t55 269v1389z" />
<glyph unicode="&#x135;" horiz-adv-x="569" d="M211 1638h148l245 -376h-139l-180 245l-180 -245h-139zM193 1120h184v-1140q0 -214 -81.5 -310t-262.5 -96h-70v156h49q105 0 143 48.5t38 201.5v1140z" />
<glyph unicode="&#x136;" horiz-adv-x="1343" d="M727 -162h211l-164 -320h-129zM201 1493h202v-631l670 631h260l-741 -696l794 -797h-266l-717 719v-719h-202v1493z" />
<glyph unicode="&#x137;" horiz-adv-x="1186" d="M616 -162h211l-164 -320h-129zM186 1556h185v-919l549 483h235l-594 -524l619 -596h-240l-569 547v-547h-185v1556z" />
<glyph unicode="&#x138;" horiz-adv-x="1186" d="M186 1120h185v-485l549 485h235l-594 -526l619 -594h-240l-569 545v-545h-185v1120z" />
<glyph unicode="&#x139;" horiz-adv-x="1141" d="M421 1900h185l-228 -264h-153zM201 1493h202v-1323h727v-170h-929v1493z" />
<glyph unicode="&#x13a;" horiz-adv-x="569" d="M401 1900h185l-228 -264h-153zM193 1556h184v-1556h-184v1556z" />
<glyph unicode="&#x13b;" horiz-adv-x="1141" d="M599 -162h211l-164 -320h-129zM201 1493h202v-1323h727v-170h-929v1493z" />
<glyph unicode="&#x13c;" horiz-adv-x="569" d="M218 -162h211l-164 -320h-129zM193 1556h184v-1556h-184v1556z" />
<glyph unicode="&#x13d;" horiz-adv-x="1141" d="M671 1493h199l-117 -376h-153zM201 1493h202v-1323h727v-170h-929v1493z" />
<glyph unicode="&#x13e;" horiz-adv-x="768" d="M569 1556h199l-117 -376h-153zM193 1556h184v-1556h-184v1556z" />
<glyph unicode="&#x13f;" horiz-adv-x="1141" d="M780 957h211v-254h-211v254zM201 1493h202v-1323h727v-170h-929v1493z" />
<glyph unicode="&#x140;" horiz-adv-x="700" d="M433 953h211v-254h-211v254zM193 1556h184v-1556h-184v1556z" />
<glyph unicode="&#x141;" horiz-adv-x="1151" d="M211 1493h203v-616l313 219l80 -111l-393 -274v-541h727v-170h-930v571l-148 -106l-77 110l225 158v760z" />
<glyph unicode="&#x142;" horiz-adv-x="582" d="M199 1556h184v-602l125 90l76 -106l-201 -141v-797h-184v666l-123 -88l-74 106l197 141v731z" />
<glyph unicode="&#x143;" horiz-adv-x="1532" d="M764 1900h185l-228 -264h-153zM201 1493h272l662 -1249v1249h196v-1493h-272l-662 1249v-1249h-196v1493z" />
<glyph unicode="&#x144;" horiz-adv-x="1298" d="M717 1645h199l-326 -376h-153zM1124 676v-676h-184v670q0 159 -62 238t-186 79q-149 0 -235 -95t-86 -259v-633h-185v1120h185v-174q66 101 155.5 151t206.5 50q193 0 292 -119.5t99 -351.5z" />
<glyph unicode="&#x145;" horiz-adv-x="1532" d="M700 -162h211l-164 -320h-129zM201 1493h272l662 -1249v1249h196v-1493h-272l-662 1249v-1249h-196v1493z" />
<glyph unicode="&#x146;" horiz-adv-x="1298" d="M588 -162h211l-164 -320h-129zM1124 676v-676h-184v670q0 159 -62 238t-186 79q-149 0 -235 -95t-86 -259v-633h-185v1120h185v-174q66 101 155.5 151t206.5 50q193 0 292 -119.5t99 -351.5z" />
<glyph unicode="&#x147;" horiz-adv-x="1532" d="M201 1493h272l662 -1249v1249h196v-1493h-272l-662 1249v-1249h-196v1493zM663 1621l-211 266h139l166 -178l166 178h139l-211 -266h-188z" />
<glyph unicode="&#x148;" horiz-adv-x="1298" d="M1124 676v-676h-184v670q0 159 -62 238t-186 79q-149 0 -235 -95t-86 -259v-633h-185v1120h185v-174q66 101 155.5 151t206.5 50q193 0 292 -119.5t99 -351.5zM579 1262l-245 376h139l180 -245l180 245h139l-245 -376h-148z" />
<glyph unicode="&#x149;" horiz-adv-x="1666" d="M1465 676v-676h-184v670q0 159 -62 238t-186 79q-149 0 -235 -95t-86 -259v-633h-185v1120h185v-174q66 101 155.5 151t206.5 50q193 0 292 -119.5t99 -351.5zM287 1493h211v-152l-164 -319h-129l82 319v152z" />
<glyph unicode="&#x14a;" horiz-adv-x="1532" d="M1104 895q0 428 -307 428q-179 0 -286.5 -127.5t-107.5 -349.5v-846h-202v1493h202v-241q78 134 183 201q106 67 259 67q227 0 343.5 -159.5t116.5 -467.5v-913q0 -213 -81 -310q-82 -96 -263 -96h-87v156h49q102 0 141.5 45t39.5 205v915z" />
<glyph unicode="&#x14b;" horiz-adv-x="1298" d="M1124 676v-696q0 -214 -82 -310q-81 -96 -262 -96h-254v156h233q105 0 143 48q38 49 38 202v690q0 159 -62 238t-186 79q-149 0 -235 -95t-86 -259v-633h-185v1120h185v-174q66 101 155 151q90 50 207 50q193 0 292 -119q99 -120 99 -352z" />
<glyph unicode="&#x14c;" horiz-adv-x="1612" d="M508 1841h598v-148h-598v148zM807 1356q-220 0 -349.5 -164t-129.5 -447q0 -282 129.5 -446t349.5 -164t348.5 164t128.5 446q0 283 -128.5 447t-348.5 164zM807 1520q314 0 502 -210.5t188 -564.5q0 -353 -188 -563.5t-502 -210.5q-315 0 -503.5 210t-188.5 564 t188.5 564.5t503.5 210.5z" />
<glyph unicode="&#x14d;" horiz-adv-x="1253" d="M328 1525h598v-148h-598v148zM627 991q-148 0 -234 -115.5t-86 -316.5t85.5 -316.5t234.5 -115.5q147 0 233 116t86 316q0 199 -86 315.5t-233 116.5zM627 1147q240 0 377 -156t137 -432q0 -275 -137 -431.5t-377 -156.5q-241 0 -377.5 156.5t-136.5 431.5 q0 276 136.5 432t377.5 156z" />
<glyph unicode="&#x14e;" horiz-adv-x="1612" d="M494 1901h118q13 -54 62.5 -82.5t132.5 -28.5q82 0 130.5 27.5t64.5 83.5h118q-10 -119 -90 -180.5t-223 -61.5q-144 0 -223.5 61t-89.5 181zM807 1356q-220 0 -349.5 -164t-129.5 -447q0 -282 129.5 -446t349.5 -164t348.5 164t128.5 446q0 283 -128.5 447t-348.5 164z M807 1520q314 0 502 -210.5t188 -564.5q0 -353 -188 -563.5t-502 -210.5q-315 0 -503.5 210t-188.5 564t188.5 564.5t503.5 210.5z" />
<glyph unicode="&#x14f;" horiz-adv-x="1253" d="M314 1608h118q11 -75 59.5 -112.5t135.5 -37.5q86 0 134 37t61 113h118q-10 -143 -89 -215t-224 -72t-224 72t-89 215zM627 991q-148 0 -234 -115.5t-86 -316.5t85.5 -316.5t234.5 -115.5q147 0 233 116t86 316q0 199 -86 315.5t-233 116.5zM627 1147q240 0 377 -156 t137 -432q0 -275 -137 -431.5t-377 -156.5q-241 0 -377.5 156.5t-136.5 431.5q0 276 136.5 432t377.5 156z" />
<glyph unicode="&#x150;" horiz-adv-x="1612" d="M1056 1899h185l-228 -264h-153zM721 1899h185l-228 -264h-153zM807 1356q-220 0 -349.5 -164t-129.5 -447q0 -282 129.5 -446t349.5 -164t348.5 164t128.5 446q0 283 -128.5 447t-348.5 164zM807 1520q314 0 502 -210.5t188 -564.5q0 -353 -188 -563.5t-502 -210.5 q-315 0 -503.5 210t-188.5 564t188.5 564.5t503.5 210.5z" />
<glyph unicode="&#x151;" horiz-adv-x="1253" d="M924 1638h178l-248 -376h-135zM590 1638h170l-223 -376h-137zM627 991q-148 0 -234 -115.5t-86 -316.5t85.5 -316.5t234.5 -115.5q147 0 233 116t86 316q0 199 -86 315.5t-233 116.5zM627 1147q240 0 377 -156t137 -432q0 -275 -137 -431.5t-377 -156.5 q-241 0 -377.5 156.5t-136.5 431.5q0 276 136.5 432t377.5 156z" />
<glyph unicode="&#x152;" horiz-adv-x="2191" d="M2042 1493v-170h-742v-442h711v-170h-711v-541h760v-170h-1065q-433 0 -656.5 190t-223.5 558q0 365 223.5 555t656.5 190h1047zM1098 1323h-129q-321 0 -481 -143.5t-160 -431.5q0 -289 160 -433.5t481 -144.5h129v1153z" />
<glyph unicode="&#x153;" horiz-adv-x="2095" d="M1802 660q-2 152 -84 241.5t-219 89.5q-153 0 -245.5 -87t-106.5 -245zM1987 606v-90h-846q12 -190 114 -289.5t285 -99.5q106 0 206 26t198 78v-174q-100 -42 -204 -64t-210 -22q-160 0 -281 55t-202 164q-71 -110 -175.5 -164.5t-244.5 -54.5q-241 0 -377.5 156.5 t-136.5 431.5q0 276 136.5 432t377.5 156q140 0 245.5 -55.5t171.5 -163.5q78 107 194 163t259 56q226 0 358 -145.5t132 -395.5zM627 991q-148 0 -234 -115.5t-86 -316.5t85.5 -316.5t234.5 -115.5q147 0 233 116t86 316q0 199 -86 315.5t-233 116.5z" />
<glyph unicode="&#x154;" horiz-adv-x="1423" d="M716 1900h185l-228 -264h-153zM909 700q65 -22 126.5 -94t123.5 -198l205 -408h-217l-191 383q-74 150 -143.5 199t-189.5 49h-220v-631h-202v1493h456q256 0 382 -107t126 -323q0 -141 -65.5 -234t-190.5 -129zM403 1327v-530h254q146 0 220.5 67.5t74.5 198.5 t-74.5 197.5t-220.5 66.5h-254z" />
<glyph unicode="&#x155;" horiz-adv-x="842" d="M717 1645h199l-326 -376h-153zM842 948q-31 18 -67.5 26.5t-80.5 8.5q-156 0 -239.5 -101.5t-83.5 -291.5v-590h-185v1120h185v-174q58 102 151 151.5t226 49.5q19 0 42 -2.5t51 -7.5z" />
<glyph unicode="&#x156;" horiz-adv-x="1423" d="M716 -162h211l-164 -320h-129zM909 700q65 -22 126.5 -94t123.5 -198l205 -408h-217l-191 383q-74 150 -143.5 199t-189.5 49h-220v-631h-202v1493h456q256 0 382 -107t126 -323q0 -141 -65.5 -234t-190.5 -129zM403 1327v-530h254q146 0 220.5 67.5t74.5 198.5 t-74.5 197.5t-220.5 66.5h-254z" />
<glyph unicode="&#x157;" horiz-adv-x="842" d="M212 -162h211l-164 -320h-129zM842 948q-31 18 -67.5 26.5t-80.5 8.5q-156 0 -239.5 -101.5t-83.5 -291.5v-590h-185v1120h185v-174q58 102 151 151.5t226 49.5q19 0 42 -2.5t51 -7.5z" />
<glyph unicode="&#x158;" horiz-adv-x="1423" d="M909 700q65 -22 126.5 -94t123.5 -198l205 -408h-217l-191 383q-74 150 -143.5 199t-189.5 49h-220v-631h-202v1493h456q256 0 382 -107t126 -323q0 -141 -65.5 -234t-190.5 -129zM403 1327v-530h254q146 0 220.5 67.5t74.5 198.5t-74.5 197.5t-220.5 66.5h-254z M543 1621l-211 266h139l166 -178l166 178h139l-211 -266h-188z" />
<glyph unicode="&#x159;" horiz-adv-x="842" d="M842 948q-31 18 -67.5 26.5t-80.5 8.5q-156 0 -239.5 -101.5t-83.5 -291.5v-590h-185v1120h185v-174q58 102 151 151.5t226 49.5q19 0 42 -2.5t51 -7.5zM465 1262l-245 376h139l180 -245l180 245h139l-245 -376h-148z" />
<glyph unicode="&#x15a;" horiz-adv-x="1300" d="M716 1900h185l-228 -264h-153zM1096 1444v-197q-115 55 -217 82t-197 27q-165 0 -254.5 -64t-89.5 -182q0 -99 59.5 -149.5t225.5 -81.5l122 -25q226 -43 333.5 -151.5t107.5 -290.5q0 -217 -145.5 -329t-426.5 -112q-106 0 -225.5 24t-247.5 71v208q123 -69 241 -104 t232 -35q173 0 267 68t94 194q0 110 -67.5 172t-221.5 93l-123 24q-226 45 -327 141t-101 267q0 198 139.5 312t384.5 114q105 0 214 -19t223 -57z" />
<glyph unicode="&#x15b;" horiz-adv-x="1067" d="M717 1645h199l-326 -376h-153zM907 1087v-174q-78 40 -162 60t-174 20q-137 0 -205.5 -42t-68.5 -126q0 -64 49 -100.5t197 -69.5l63 -14q196 -42 278.5 -118.5t82.5 -213.5q0 -156 -123.5 -247t-339.5 -91q-90 0 -187.5 17.5t-205.5 52.5v190q102 -53 201 -79.5 t196 -26.5q130 0 200 44.5t70 125.5q0 75 -50.5 115t-221.5 77l-64 15q-171 36 -247 110.5t-76 204.5q0 158 112 244t318 86q102 0 192 -15t166 -45z" />
<glyph unicode="&#x15c;" horiz-adv-x="1300" d="M565 1901h188l211 -266h-139l-166 178l-166 -178h-139zM1096 1444v-197q-115 55 -217 82t-197 27q-165 0 -254.5 -64t-89.5 -182q0 -99 59.5 -149.5t225.5 -81.5l122 -25q226 -43 333.5 -151.5t107.5 -290.5q0 -217 -145.5 -329t-426.5 -112q-106 0 -225.5 24t-247.5 71 v208q123 -69 241 -104t232 -35q173 0 267 68t94 194q0 110 -67.5 172t-221.5 93l-123 24q-226 45 -327 141t-101 267q0 198 139.5 312t384.5 114q105 0 214 -19t223 -57z" />
<glyph unicode="&#x15d;" horiz-adv-x="1067" d="M475 1638h148l245 -376h-139l-180 245l-180 -245h-139zM907 1087v-174q-78 40 -162 60t-174 20q-137 0 -205.5 -42t-68.5 -126q0 -64 49 -100.5t197 -69.5l63 -14q196 -42 278.5 -118.5t82.5 -213.5q0 -156 -123.5 -247t-339.5 -91q-90 0 -187.5 17.5t-205.5 52.5v190 q102 -53 201 -79.5t196 -26.5q130 0 200 44.5t70 125.5q0 75 -50.5 115t-221.5 77l-64 15q-171 36 -247 110.5t-76 204.5q0 158 112 244t318 86q102 0 192 -15t166 -45z" />
<glyph unicode="&#x15e;" horiz-adv-x="1300" d="M1096 1444v-197q-115 55 -217 82t-197 27q-165 0 -254.5 -64t-89.5 -182q0 -99 59.5 -149.5t225.5 -81.5l122 -25q226 -43 333.5 -151.5t107.5 -290.5q0 -217 -145.5 -329t-426.5 -112q-106 0 -225.5 24t-247.5 71v208q123 -69 241 -104t232 -35q173 0 267 68t94 194 q0 110 -67.5 172t-221.5 93l-123 24q-226 45 -327 141t-101 267q0 198 139.5 312t384.5 114q105 0 214 -19t223 -57zM735 0q55 -62 82 -114.5t27 -100.5q0 -89 -60 -134.5t-178 -45.5q-46 0 -89.5 6t-86.5 18v131q34 -17 71 -24.5t84 -7.5q59 0 89 24t30 70q0 30 -21.5 73.5 t-66.5 104.5h119z" />
<glyph unicode="&#x15f;" horiz-adv-x="1067" d="M907 1087v-174q-78 40 -162 60t-174 20q-137 0 -205.5 -42t-68.5 -126q0 -64 49 -100.5t197 -69.5l63 -14q196 -42 278.5 -118.5t82.5 -213.5q0 -156 -123.5 -247t-339.5 -91q-90 0 -187.5 17.5t-205.5 52.5v190q102 -53 201 -79.5t196 -26.5q130 0 200 44.5t70 125.5 q0 75 -50.5 115t-221.5 77l-64 15q-171 36 -247 110.5t-76 204.5q0 158 112 244t318 86q102 0 192 -15t166 -45zM619 0q55 -62 82 -114.5t27 -100.5q0 -89 -60 -134.5t-178 -45.5q-46 0 -89.5 6t-86.5 18v131q34 -17 71 -24.5t84 -7.5q59 0 89 24t30 70q0 30 -21.5 73.5 t-66.5 104.5h119z" />
<glyph unicode="&#x160;" horiz-adv-x="1300" d="M1096 1444v-197q-115 55 -217 82t-197 27q-165 0 -254.5 -64t-89.5 -182q0 -99 59.5 -149.5t225.5 -81.5l122 -25q226 -43 333.5 -151.5t107.5 -290.5q0 -217 -145.5 -329t-426.5 -112q-106 0 -225.5 24t-247.5 71v208q123 -69 241 -104t232 -35q173 0 267 68t94 194 q0 110 -67.5 172t-221.5 93l-123 24q-226 45 -327 141t-101 267q0 198 139.5 312t384.5 114q105 0 214 -19t223 -57zM557 1635l-211 266h139l166 -178l166 178h139l-211 -266h-188z" />
<glyph unicode="&#x161;" horiz-adv-x="1067" d="M907 1087v-174q-78 40 -162 60t-174 20q-137 0 -205.5 -42t-68.5 -126q0 -64 49 -100.5t197 -69.5l63 -14q196 -42 278.5 -118.5t82.5 -213.5q0 -156 -123.5 -247t-339.5 -91q-90 0 -187.5 17.5t-205.5 52.5v190q102 -53 201 -79.5t196 -26.5q130 0 200 44.5t70 125.5 q0 75 -50.5 115t-221.5 77l-64 15q-171 36 -247 110.5t-76 204.5q0 158 112 244t318 86q102 0 192 -15t166 -45zM481 1262l-245 376h139l180 -245l180 245h139l-245 -376h-148zM551 1147z" />
<glyph unicode="&#x162;" horiz-adv-x="1251" d="M676 0q55 -62 82 -114.5t27 -100.5q0 -89 -60 -134.5t-178 -45.5q-46 0 -89.5 6t-86.5 18v131q34 -17 71 -24.5t84 -7.5q59 0 89 24t30 70q0 30 -21.5 73.5t-66.5 104.5h119zM-6 1493h1263v-170h-530v-1323h-203v1323h-530v170z" />
<glyph unicode="&#x163;" horiz-adv-x="803" d="M565 0q55 -62 82 -114.5t27 -100.5q0 -89 -60 -134.5t-178 -45.5q-46 0 -89.5 6t-86.5 18v131q34 -17 71 -24.5t84 -7.5q59 0 89 24t30 70q0 30 -21.5 73.5t-66.5 104.5h119zM375 1438v-318h379v-143h-379v-608q0 -137 37.5 -176t152.5 -39h189v-154h-189 q-213 0 -294 79.5t-81 289.5v608h-135v143h135v318h185z" />
<glyph unicode="&#x164;" horiz-adv-x="1251" d="M-6 1493h1263v-170h-530v-1323h-203v1323h-530v170zM533 1621l-211 266h139l166 -178l166 178h139l-211 -266h-188z" />
<glyph unicode="&#x165;" horiz-adv-x="803" d="M375 1438v-318h379v-143h-379v-608q0 -137 37.5 -176t152.5 -39h189v-154h-189q-213 0 -294 79.5t-81 289.5v608h-135v143h135v318h185zM567 1666h199l-117 -376h-153z" />
<glyph unicode="&#x166;" horiz-adv-x="1251" d="M-6 1493h1263v-170h-530v-576h265v-170h-265v-577h-203v577h-265v170h265v576h-530v170z" />
<glyph unicode="&#x167;" horiz-adv-x="803" d="M375 1438v-318h379v-143h-379v-233h379v-142h-379v-233q0 -137 37 -176q38 -39 153 -39h189v-154h-189q-213 0 -294 80q-81 79 -81 289v233h-135v142h135v233h-135v143h135v318h185z" />
<glyph unicode="&#x168;" horiz-adv-x="1499" d="M746 1710l-57 33q-25 14 -40.5 19.5t-27.5 5.5q-36 0 -56 -25t-20 -70v-6h-125q0 101 51.5 160t137.5 59q36 0 66.5 -8t78.5 -35l57 -30q23 -13 40 -19t32 -6q32 0 52 25.5t20 66.5v6h125q-2 -100 -53.5 -159.5t-135.5 -59.5q-34 0 -63.5 8t-81.5 35zM178 1493h203v-907 q0 -240 87 -345.5t282 -105.5q194 0 281 105.5t87 345.5v907h203v-932q0 -292 -144.5 -441t-426.5 -149q-283 0 -427.5 149t-144.5 441v932z" />
<glyph unicode="&#x169;" horiz-adv-x="1298" d="M639 1370l-57 55q-22 20 -38.5 29.5t-29.5 9.5q-38 0 -56 -36.5t-20 -118.5h-125q2 135 53 208.5t142 73.5q38 0 70 -14t69 -47l57 -55q22 -20 38.5 -29.5t29.5 -9.5q38 0 56 36.5t20 118.5h125q-2 -135 -53 -208.5t-142 -73.5q-38 0 -70 14t-69 47zM174 442v678h184 v-671q0 -159 62 -238.5t186 -79.5q149 0 235.5 95t86.5 259v635h184v-1120h-184v172q-67 -102 -155.5 -151.5t-205.5 -49.5q-193 0 -293 120t-100 351zM637 1147z" />
<glyph unicode="&#x16a;" horiz-adv-x="1499" d="M451 1841h598v-148h-598v148zM178 1493h203v-907q0 -240 87 -345.5t282 -105.5q194 0 281 105.5t87 345.5v907h203v-932q0 -292 -144.5 -441t-426.5 -149q-283 0 -427.5 149t-144.5 441v932z" />
<glyph unicode="&#x16b;" horiz-adv-x="1298" d="M344 1525h598v-148h-598v148zM174 442v678h184v-671q0 -159 62 -238.5t186 -79.5q149 0 235.5 95t86.5 259v635h184v-1120h-184v172q-67 -102 -155.5 -151.5t-205.5 -49.5q-193 0 -293 120t-100 351zM637 1147z" />
<glyph unicode="&#x16c;" horiz-adv-x="1499" d="M437 1901h118q13 -54 62.5 -82.5t132.5 -28.5q82 0 130.5 27.5t64.5 83.5h118q-10 -119 -90 -180.5t-223 -61.5q-144 0 -223.5 61t-89.5 181zM178 1493h203v-907q0 -240 87 -345.5t282 -105.5q194 0 281 105.5t87 345.5v907h203v-932q0 -292 -144.5 -441t-426.5 -149 q-283 0 -427.5 149t-144.5 441v932z" />
<glyph unicode="&#x16d;" horiz-adv-x="1298" d="M330 1608h118q11 -75 59.5 -112.5t135.5 -37.5q86 0 134 37t61 113h118q-10 -143 -89 -215t-224 -72t-224 72t-89 215zM174 442v678h184v-671q0 -159 62 -238.5t186 -79.5q149 0 235.5 95t86.5 259v635h184v-1120h-184v172q-67 -102 -155.5 -151.5t-205.5 -49.5 q-193 0 -293 120t-100 351zM637 1147z" />
<glyph unicode="&#x16e;" horiz-adv-x="1499" d="M178 1493h203v-907q0 -240 87 -345.5t282 -105.5q194 0 281 105.5t87 345.5v907h203v-932q0 -292 -144.5 -441t-426.5 -149q-283 0 -427.5 149t-144.5 441v932zM904 1629q0 63 -44 107t-108 44q-65 0 -108.5 -43.5t-43.5 -107.5q0 -65 43.5 -108.5t108.5 -43.5 q64 0 108 44t44 108zM1026 1629q0 -115 -79.5 -195t-194.5 -80t-194.5 80t-79.5 195t79.5 194.5t194.5 79.5t194.5 -79.5t79.5 -194.5z" />
<glyph unicode="&#x16f;" horiz-adv-x="1298" d="M174 442v678h184v-671q0 -159 62 -238.5t186 -79.5q149 0 235.5 95t86.5 259v635h184v-1120h-184v172q-67 -102 -155.5 -151.5t-205.5 -49.5q-193 0 -293 120t-100 351zM637 1147zM788 1464q0 63 -44 107t-108 44q-65 0 -108.5 -43.5t-43.5 -107.5q0 -65 43.5 -108.5 t108.5 -43.5q64 0 108 44t44 108zM910 1464q0 -115 -79.5 -195t-194.5 -80t-194.5 80t-79.5 195t79.5 194.5t194.5 79.5t194.5 -79.5t79.5 -194.5z" />
<glyph unicode="&#x170;" horiz-adv-x="1499" d="M999 1899h185l-228 -264h-153zM664 1899h185l-228 -264h-153zM178 1493h203v-907q0 -240 87 -345.5t282 -105.5q194 0 281 105.5t87 345.5v907h203v-932q0 -292 -144.5 -441t-426.5 -149q-283 0 -427.5 149t-144.5 441v932z" />
<glyph unicode="&#x171;" horiz-adv-x="1298" d="M940 1638h178l-248 -376h-135zM606 1638h170l-223 -376h-137zM174 442v678h184v-671q0 -159 62 -238.5t186 -79.5q149 0 235.5 95t86.5 259v635h184v-1120h-184v172q-67 -102 -155.5 -151.5t-205.5 -49.5q-193 0 -293 120t-100 351zM637 1147z" />
<glyph unicode="&#x172;" horiz-adv-x="1499" d="M178 1493h203v-907q0 -240 87 -345.5t282 -105.5q194 0 281 105.5t87 345.5v907h203v-932q0 -292 -144.5 -441t-426.5 -149q-283 0 -427.5 149t-144.5 441v932zM690 0h119q-45 -61 -66.5 -105t-21.5 -75q0 -46 27.5 -69t81.5 -23q32 0 63 7.5t62 22.5v-133 q-38 -10 -72 -15t-64 -5q-122 0 -179.5 43.5t-57.5 136.5q0 48 26.5 100.5t81.5 114.5z" />
<glyph unicode="&#x173;" horiz-adv-x="1298" d="M174 442v678h184v-671q0 -159 62 -238.5t186 -79.5q149 0 235.5 95t86.5 259v635h184v-1120h-184v172q-67 -102 -155.5 -151.5t-205.5 -49.5q-193 0 -293 120t-100 351zM637 1147zM991 0h119q-45 -61 -66.5 -105t-21.5 -75q0 -46 27.5 -69t81.5 -23q32 0 63 7.5t62 22.5 v-133q-38 -10 -72 -15t-64 -5q-122 0 -179.5 43.5t-57.5 136.5q0 48 26.5 100.5t81.5 114.5z" />
<glyph unicode="&#x174;" horiz-adv-x="2025" d="M919 1908h188l211 -266h-139l-166 178l-166 -178h-139zM68 1493h204l314 -1262l313 1262h227l314 -1262l313 1262h205l-375 -1493h-254l-315 1296l-318 -1296h-254z" />
<glyph unicode="&#x175;" horiz-adv-x="1675" d="M763 1645h148l245 -376h-139l-180 245l-180 -245h-139zM86 1120h184l230 -874l229 874h217l230 -874l229 874h184l-293 -1120h-217l-241 918l-242 -918h-217z" />
<glyph unicode="&#x176;" horiz-adv-x="1251" d="M532 1908h188l211 -266h-139l-166 178l-166 -178h-139zM-4 1493h217l414 -614l411 614h217l-528 -782v-711h-203v711z" />
<glyph unicode="&#x177;" horiz-adv-x="1212" d="M532 1645h148l245 -376h-139l-180 245l-180 -245h-139zM659 -104q-78 -200 -152 -261t-198 -61h-147v154h108q76 0 118 36t93 170l33 84l-453 1102h195l350 -876l350 876h195z" />
<glyph unicode="&#x178;" horiz-adv-x="1251" d="M-4 1493h217l414 -614l411 614h217l-528 -782v-711h-203v711zM721 1870h203v-203h-203v203zM330 1870h203v-203h-203v203z" />
<glyph unicode="&#x179;" horiz-adv-x="1403" d="M716 1900h185l-228 -264h-153zM115 1493h1173v-154l-944 -1169h967v-170h-1219v154l944 1169h-921v170z" />
<glyph unicode="&#x17a;" horiz-adv-x="1075" d="M717 1645h199l-326 -376h-153zM113 1120h874v-168l-692 -805h692v-147h-899v168l692 805h-667v147z" />
<glyph unicode="&#x17b;" horiz-adv-x="1403" d="M600 1872h204v-205h-204v205zM115 1493h1173v-154l-944 -1169h967v-170h-1219v154l944 1169h-921v170z" />
<glyph unicode="&#x17c;" horiz-adv-x="1075" d="M441 1556h184v-233h-184v233zM535 1147zM113 1120h874v-168l-692 -805h692v-147h-899v168l692 805h-667v147z" />
<glyph unicode="&#x17d;" horiz-adv-x="1403" d="M115 1493h1173v-154l-944 -1169h967v-170h-1219v154l944 1169h-921v170zM608 1635l-211 266h139l166 -178l166 178h139l-211 -266h-188z" />
<glyph unicode="&#x17e;" horiz-adv-x="1075" d="M113 1120h874v-168l-692 -805h692v-147h-899v168l692 805h-667v147zM465 1262l-245 376h139l180 -245l180 245h139l-245 -376h-148z" />
<glyph unicode="&#x17f;" horiz-adv-x="721" d="M408 0h-185v977h-176v143h176v78q0 187 87 272.5t276 85.5h174v-153h-176q-99 0 -138 -40q-38 -41 -38 -144v-1219z" />
<glyph unicode="&#x180;" horiz-adv-x="1300" d="M997 559q0 203 -83 319q-84 115 -230 115t-230 -115q-83 -116 -83 -319t83 -319q84 -115 230 -115t230 115q83 116 83 319zM371 950q58 100 147 148q88 49 211 49q204 0 331 -162q128 -162 128 -426t-128 -426q-127 -162 -331 -162q-123 0 -211 49q-89 48 -147 148v-168 h-185v1284h-154v125h154v147h185v-147h325v-125h-325v-334z" />
<glyph unicode="&#x181;" horiz-adv-x="1505" d="M503 713v-547h324q163 0 241.5 67.5t78.5 206.5q0 140 -78.5 206.5t-241.5 66.5h-324zM503 1327v-450h299q148 0 220.5 55.5t72.5 169.5q0 113 -72.5 169t-220.5 56h-299zM301 1493h516q231 0 356 -96t125 -273q0 -137 -64 -218t-188 -101q149 -32 231.5 -133.5 t82.5 -253.5q0 -200 -136 -309t-387 -109h-536v1328q-132 0 -191 -47.5t-59 -152.5v-49h-156v70q0 181 96 262.5t310 81.5z" />
<glyph unicode="&#x182;" horiz-adv-x="1405" d="M1047 439q0 139 -78.5 206.5t-241.5 67.5h-324v-547h324q163 0 241.5 67.5t78.5 205.5zM1155 1493v-166h-752v-448h334q251 0 387 -109t136 -331q0 -221 -131.5 -330t-391.5 -109h-536v1493h954z" />
<glyph unicode="&#x183;" horiz-adv-x="1300" d="M371 950q58 100 147 148q88 49 211 49q204 0 331 -162q128 -162 128 -426t-128 -426q-127 -162 -331 -162q-123 0 -211 49q-89 48 -147 148v-168h-185v1556h846v-166l-661 1v-441zM997 559q0 203 -83 319q-84 115 -230 115t-230 -115q-83 -116 -83 -319t83 -319 q84 -115 230 -115t230 115q83 116 83 319z" />
<glyph unicode="&#x184;" horiz-adv-x="1405" d="M1047 439q0 139 -79 207q-78 67 -241 67h-324v-547h324q163 0 241 68q79 67 79 205zM403 1493v-614h334q251 0 387 -109t136 -331q0 -221 -136 -330t-387 -109h-536v1092h-201l312 401h91z" />
<glyph unicode="&#x185;" horiz-adv-x="1300" d="M371 950q58 100 146.5 148.5t211.5 48.5q204 0 331.5 -162t127.5 -426t-127.5 -426t-331.5 -162q-123 0 -211.5 48.5t-146.5 148.5v-168h-185v1092h-186l290 465h81v-607zM997 559q0 203 -83.5 318.5t-229.5 115.5t-229.5 -115.5t-83.5 -318.5t83.5 -318.5t229.5 -115.5 t229.5 115.5t83.5 318.5z" />
<glyph unicode="&#x186;" horiz-adv-x="1440" d="M115 1378q104 71 222.5 106.5t252.5 35.5q339 0 534 -207.5t195 -567.5q0 -359 -195 -566.5t-534 -207.5q-132 0 -250.5 36t-224.5 108v211q102 -95 217.5 -142t245.5 -47q256 0 392 156.5t136 451.5q0 296 -136 452.5t-392 156.5q-130 0 -245.5 -47t-217.5 -142v213z " />
<glyph unicode="&#x187;" horiz-adv-x="1430" d="M1319 1378v-213q-102 95 -217.5 142t-245.5 47q-256 0 -392 -156.5t-136 -452.5q0 -295 136 -451.5t392 -156.5q130 0 245.5 47t217.5 142v-211q-106 -72 -224.5 -108t-250.5 -36q-339 0 -534 207.5t-195 566.5q0 360 195 567.5t534 207.5q96 0 252 -36q13 -3 25 -7 q16 195 99 293q102 122 329 122h77v-170h-63q-134 0 -189 -75t-55 -269z" />
<glyph unicode="&#x188;" horiz-adv-x="1126" d="M999 1150v-245q-78 43 -156.5 64.5t-158.5 21.5q-179 0 -278 -113.5t-99 -318.5t99 -318.5t278 -113.5q80 0 158.5 21.5t156.5 64.5v-170q-77 -36 -159.5 -54t-175.5 -18q-253 0 -402 159t-149 429q0 274 150.5 431t412.5 157q71 0 141 -12v15q0 214 80.5 310t261.5 96 h69v-156h-48q-105 0 -143 -48.5t-38 -201.5z" />
<glyph unicode="&#x189;" horiz-adv-x="1587" d="M211 1493h416q433 0 636 -180.5t203 -564.5q0 -386 -203.5 -567t-635.5 -181h-416v700h-201v144h201v649zM414 1327v-483h336v-144h-336v-534h243q309 0 452.5 140t143.5 442q0 300 -143.5 439.5t-452.5 139.5h-243z" />
<glyph unicode="&#x18a;" horiz-adv-x="1677" d="M503 1327v-1161h244q309 0 452.5 140t143.5 442q0 300 -143.5 439.5t-452.5 139.5h-244zM301 1493h415q434 0 637 -180.5t203 -564.5q0 -386 -204 -567t-636 -181h-415v1328q-132 0 -191 -47.5t-59 -152.5v-49h-156v70q0 181 96 262.5t310 81.5z" />
<glyph unicode="&#x18b;" horiz-adv-x="1405" d="M414 439q0 -273 320 -273h324v547h-324q-163 0 -241.5 -67.5t-78.5 -206.5zM414 1493h846v-1493h-536q-251 0 -387 109t-136 331q0 221 136 330t387 109h334v448h-644v166z" />
<glyph unicode="&#x18c;" horiz-adv-x="1300" d="M269 1390v166h845v-1556h-184v168q-58 -100 -146.5 -148.5t-212.5 -48.5q-203 0 -330.5 162t-127.5 426t127.5 426t330.5 162q124 0 212.5 -48.5t146.5 -148.5v441zM303 559q0 -203 83.5 -318.5t229.5 -115.5t230 115.5t84 318.5t-84 318.5t-230 115.5t-229.5 -115.5 t-83.5 -318.5z" />
<glyph unicode="&#x18d;" horiz-adv-x="1253" d="M875 66q157 -79 157 -220q0 -272 -441 -272q-221 0 -341 70v153q102 -70 348 -70t246 117q0 92 -264 140q-208 37 -325 149q-142 135 -142 406t137 427.5t376 156.5q240 0 377.5 -156.5t136.5 -431.5q0 -156 -77.5 -286t-187.5 -183zM946 535q1 203 -84.5 317.5 t-233.5 114.5t-234 -116t-86 -311q0 -194 94 -293.5t220 -110.5q64 -6 115 -20q99 42 154 152t55 267z" />
<glyph unicode="&#x18e;" horiz-adv-x="1294" d="M1093 1493v-1493h-962v170h760v541h-711v170h711v442h-742v170h944z" />
<glyph unicode="&#x18f;" horiz-adv-x="1612" d="M117 780h1167q0 268 -137.5 421t-411.5 153q-139 0 -265 -48t-238 -143v215q111 70 242.5 106t277.5 36q350 0 547.5 -204.5t197.5 -570.5q0 -353 -188 -563.5t-502 -210.5q-329 0 -509.5 219.5t-180.5 589.5zM337 614q13 -195 140.5 -337t329.5 -142t329.5 142 t140.5 337h-940z" />
<glyph unicode="&#x190;" horiz-adv-x="1258" d="M472 805q-131 33 -202 118.5t-71 209.5q0 178 134 282.5t364 104.5q89 0 189.5 -16t215.5 -48v-180q-114 38 -209 56t-178 18q-152 0 -233.5 -61.5t-81.5 -176.5q0 -112 79 -171.5t228 -59.5h182v-166h-174q-165 0 -257.5 -74.5t-92.5 -206.5q0 -143 99.5 -218t289.5 -75 q109 0 209 25t184 74v-195q-106 -37 -205.5 -55.5t-193.5 -18.5q-280 0 -432 121t-152 342q0 144 81.5 242t226.5 129z" />
<glyph unicode="&#x191;" horiz-adv-x="1178" d="M201 1493h858v-170h-656v-440h592v-170h-592v-609q0 -270 -102.5 -392t-329.5 -122h-77v170h63q134 0 189 75t55 269v1389z" />
<glyph unicode="&#x192;" horiz-adv-x="721" d="M760 1556v-153h-176q-99 0 -137.5 -40t-38.5 -144v-99h303v-143h-303v-1045q0 -187 -87 -272.5t-276 -85.5h-174v153h176q99 0 137.5 40t38.5 144v1066h-176v143h176v78q0 187 87 272.5t276 85.5h174z" />
<glyph unicode="&#x193;" horiz-adv-x="1587" d="M1219 213v401h-330v166h530v-641q-117 -83 -258 -125.5t-301 -42.5q-350 0 -547.5 204.5t-197.5 569.5q0 366 197.5 570.5t547.5 204.5q91 0 172.5 -12.5t149.5 -37.5q0 188 100.5 305t327.5 117h77v-170h-63q-134 0 -189 -75t-55 -269v-215q-112 95 -238 143t-265 48 q-274 0 -411.5 -153t-137.5 -456q0 -302 137.5 -455t411.5 -153q107 0 191 18.5t151 57.5z" />
<glyph unicode="&#x194;" horiz-adv-x="1406" d="M703 -259q54 0 98 32q28 20 28 86q0 57 -31 130q-51 121 -95 213q-44 -92 -95 -213q-31 -73 -31 -130q0 -66 28 -86q44 -32 98 -32zM703 631l473 862h222l-582 -1073q104 -200 171 -374q46 -119 46 -185q0 -139 -75 -204q-100 -87 -255 -87t-255 87q-75 65 -75 204 q0 66 46 185q67 174 171 374l-582 1073h222z" />
<glyph unicode="&#x195;" horiz-adv-x="2015" d="M1356 156q149 0 233 98q87 101 87 256q0 222 -74 334q-62 95 -183 128v148q224 -29 333 -172q111 -145 111 -421q0 -245 -144 -386t-365 -141h-70q-187 0 -265.5 100t-78.5 306v264q0 159 -62 238t-186 79q-149 0 -235 -95t-86 -259v-633h-185v1556h185v-610 q66 101 155.5 151t206.5 50q193 0 292 -119.5t99 -351.5v-270q0 -147 38 -198.5t143 -51.5h51z" />
<glyph unicode="&#x196;" horiz-adv-x="724" d="M201 1493h202v-979q0 -194 55 -269t189 -75h63v-170h-77q-227 0 -329.5 122t-102.5 392v979z" />
<glyph unicode="&#x197;" horiz-adv-x="604" d="M201 1493h202v-746h191v-170h-191v-577h-202v577h-191v170h191v746z" />
<glyph unicode="&#x198;" horiz-adv-x="1527" d="M1527 1096h-170v121q0 54 -36.5 94t-74.5 40q-70 0 -107 -35l-547 -519l794 -797h-266l-717 719v-719h-202v1493h202v-631l620 579q85 79 198 79q136 0 221 -92q85 -91 85 -201v-131z" />
<glyph unicode="&#x199;" horiz-adv-x="1186" d="M185 1150q0 214 81.5 310t262.5 96h191v-156h-168q-105 0 -143 -48.5t-38 -201.5v-513l549 483h235l-594 -524l619 -596h-240l-569 547v-547h-185z" />
<glyph unicode="&#x19a;" horiz-adv-x="569" d="M193 1556h184v-712h177v-144h-177v-700h-184v700h-183v144h183v712z" />
<glyph unicode="&#x19b;" horiz-adv-x="1212" d="M61 0l491 1074l-71 188l-300 -101l-33 99l297 99l-75 197h200l52 -138l314 104l33 -97l-311 -104l493 -1321h-195l-314 828l-386 -828h-195z" />
<glyph unicode="&#x19c;" horiz-adv-x="1995" d="M934 213q-69 -124 -165 -183t-226 -59q-175 0 -270 123q-95 122 -95 348v1051h203v-1041q0 -186 39 -239q57 -78 174 -78q143 0 226 95t83 259v1004h203v-1041q0 -162 57 -240q57 -77 176 -77q123 0 206 95q83 96 83 259v1004h203v-1495h-203v174q-63 -103 -151 -152 t-209 -49q-122 0 -208 62q-85 62 -126 180z" />
<glyph unicode="&#x19d;" horiz-adv-x="1532" d="M201 1493h272l662 -1249v1249h196v-1493h-272l-662 1249v-1145q0 -270 -102.5 -392t-329.5 -122h-71v170h63q134 0 189 75t55 269v1389z" />
<glyph unicode="&#x19e;" horiz-adv-x="1298" d="M1124 676v-1102h-184v1096q0 159 -62 238t-186 79q-149 0 -235 -95t-86 -259v-633h-185v1120h185v-174q66 101 155 151q90 50 207 50q193 0 292 -119q99 -120 99 -352z" />
<glyph unicode="&#x19f;" horiz-adv-x="1612" d="M115 745q0 354 188.5 564.5t502.5 210.5q315 0 503 -210.5t188 -563.5q0 -354 -188 -564.5t-503 -210.5q-314 0 -502.5 210t-188.5 564zM808 1356q-202 0 -330 -142t-140 -337h940q-14 195 -141 337t-329 142zM328 710q8 -257 133.5 -416t345.5 -159t344 158.5t132 416.5 h-955z" />
<glyph unicode="&#x1a0;" horiz-adv-x="1870" d="M795 1356q-220 0 -349.5 -164t-129.5 -447q0 -282 129.5 -446t349.5 -164t348.5 164t128.5 446q0 283 -128.5 447t-348.5 164zM795 1520q314 0 502 -210.5t188 -564.5q0 -353 -188 -563.5t-502 -210.5q-315 0 -503.5 210t-188.5 564t188.5 564.5t503.5 210.5zM1170 1291 v119q61 -45 105 -66.5t75 -21.5q46 0 69 27.5t23 81.5q0 32 -7.5 63t-22.5 62h133q10 -38 15 -72t5 -64q0 -122 -43.5 -179.5t-136.5 -57.5q-48 0 -100.5 26.5t-114.5 81.5z" />
<glyph unicode="&#x1a1;" horiz-adv-x="1253" d="M840 994v119q61 -45 105 -66.5t75 -21.5q46 0 69 27.5t23 81.5q0 32 -7.5 63t-22.5 62h133q10 -38 15 -72t5 -64q0 -122 -43.5 -179.5t-136.5 -57.5q-48 0 -100.5 26.5t-114.5 81.5zM632 991q-148 0 -234 -115.5t-86 -316.5t85.5 -316.5t234.5 -115.5q147 0 233 116 t86 316q0 199 -86 315.5t-233 116.5zM632 1147q240 0 377 -156t137 -432q0 -275 -137 -431.5t-377 -156.5q-241 0 -377.5 156.5t-136.5 431.5q0 276 136.5 432t377.5 156z" />
<glyph unicode="&#x1a2;" horiz-adv-x="1943" d="M1541 0v979q0 194 -55 269t-177 75v-1141q-188 -211 -503 -211q-314 0 -502.5 210t-188.5 564t188.5 564.5t503.5 210.5q112 0 209 -27h295q227 0 329.5 -122t102.5 -392v-979h-202zM807 1356q-220 0 -349.5 -164t-129.5 -446q0 -283 129.5 -447t349.5 -164 q175 0 303 103v1048q-138 70 -303 70z" />
<glyph unicode="&#x1a3;" horiz-adv-x="1555" d="M1185 -426v1140q0 153 -38 202q-38 48 -143 48v-836q-137 -157 -377 -157q-241 0 -377.5 156.5t-136.5 431.5q0 276 136.5 432t377.5 156q100 0 182 -27h216q181 0 263 -96q81 -96 81 -310v-1140h-184zM627 991q-148 0 -234 -115.5t-86 -316.5t85.5 -316.5t234.5 -115.5 q129 0 193 58v752q-84 54 -193 54z" />
<glyph unicode="&#x1a4;" horiz-adv-x="1335" d="M503 1327v-561h254q141 0 218 73t77 208q0 134 -77 207t-218 73h-254zM301 1493h456q251 0 379.5 -113.5t128.5 -332.5q0 -221 -128.5 -334t-379.5 -113h-254v-600h-202v1328q-132 0 -191 -47.5t-59 -152.5v-49h-156v70q0 181 96 262.5t310 81.5z" />
<glyph unicode="&#x1a5;" horiz-adv-x="1300" d="M371 168v-594h-186v1576q0 214 81.5 310t262.5 96h254v-156h-231q-105 0 -143 -48.5t-38 -201.5v-200q58 100 146.5 148.5t211.5 48.5q204 0 331.5 -162t127.5 -426t-127.5 -426t-331.5 -162q-123 0 -211.5 48.5t-146.5 148.5zM997 559q0 203 -83.5 318.5t-229.5 115.5 t-229.5 -115.5t-83.5 -318.5t83.5 -318.5t229.5 -115.5t229.5 115.5t83.5 318.5z" />
<glyph unicode="&#x1a6;" horiz-adv-x="1423" d="M909 436q65 -22 126.5 -94t123.5 -198l205 -408h-217l-191 383q-74 150 -143.5 199t-189.5 49h-220v-367h-202v1493h202v-264h254q256 0 382 -107t126 -323q0 -141 -65.5 -234t-190.5 -129zM403 1063v-559h254q141 0 218 73t77 207t-76.5 206.5t-218.5 72.5h-254z" />
<glyph unicode="&#x1a7;" horiz-adv-x="1300" d="M204 1444q228 76 455 76t366.5 -114t139.5 -298.5t-101 -280.5t-327 -141l-123 -24q-154 -31 -221.5 -93t-67.5 -180t94 -186t267 -68q225 0 473 139v-208q-259 -95 -473 -95q-281 0 -427 112q-145 112 -145 329q0 182 107.5 290.5t333.5 151.5l122 25q166 31 226 81 q59 51 59 159.5t-89 172.5q-90 64 -265.5 64t-403.5 -109v197z" />
<glyph unicode="&#x1a8;" horiz-adv-x="1067" d="M160 1087q76 30 166 45t192 15q206 0 318 -86t112 -244q0 -130 -76 -204.5t-247 -110.5l-64 -15q-171 -37 -221.5 -77t-50.5 -115q0 -81 70 -125.5t200 -44.5q97 0 196 26.5t201 79.5v-190q-108 -35 -205.5 -52.5t-187.5 -17.5q-216 0 -339.5 91t-123.5 247 q0 137 82.5 213.5t278.5 118.5l63 14q148 33 197 69.5t49 100.5q0 84 -68.5 126t-205.5 42q-90 0 -174 -20t-162 -60v174z" />
<glyph unicode="&#x1a9;" horiz-adv-x="1294" d="M433 170h730v-170h-962v170l479 624l-479 529v170h944v-170h-712l479 -525z" />
<glyph unicode="&#x1aa;" horiz-adv-x="688" d="M375 1130v-1219q0 -104 38.5 -144t137.5 -40h176v-153h-174q-189 0 -276 85.5t-87 272.5v1198h-190q-270 0 -270 210q0 216 303 216q181 0 263 -96q53 -64 71 -175h191v-155h-183zM180 1284q-8 44 -25 68q-33 48 -143 48q-124 0 -127 -65q-3 -51 116 -51h179z" />
<glyph unicode="&#x1ab;" horiz-adv-x="803" d="M375 1438v-318h379v-143h-379v-608q0 -137 37.5 -176t152.5 -39h189v-174q0 -214 -82 -310t-262 -96h-70v156h48q106 0 144 48q38 49 38 202v20q-213 0 -296.5 79.5t-83.5 289.5v608h-135v143h135v318h185z" />
<glyph unicode="&#x1ac;" horiz-adv-x="1251" d="M430 1493h827v-170h-530v-1323h-203v1323h-94q-132 0 -191 -45t-59 -150v-49h-156v70q0 181 96 262.5t310 81.5z" />
<glyph unicode="&#x1ad;" horiz-adv-x="803" d="M375 1219v-99h379v-143h-379v-608q0 -137 37.5 -176t152.5 -39h189v-154h-189q-213 0 -294 79.5t-81 289.5v608h-135v143h135v78q0 187 87 272.5t276 85.5h174v-153h-176q-99 0 -137.5 -40.5t-38.5 -143.5z" />
<glyph unicode="&#x1ae;" horiz-adv-x="1251" d="M-6 1493h1263v-170h-530v-1219q0 -194 55 -269t189 -75h63v-170h-78q-227 0 -329.5 122t-102.5 392v1219h-530v170z" />
<glyph unicode="&#x1af;" horiz-adv-x="1757" d="M173 1513h203v-907q0 -240 87 -345.5t282 -105.5q194 0 281 105.5t87 345.5v907h203v-932q0 -292 -144.5 -441t-426.5 -149q-283 0 -427.5 149t-144.5 441v932zM1236 1291v119q61 -45 105 -66.5t75 -21.5q46 0 69 27.5t23 81.5q0 32 -7.5 63t-22.5 62h133q10 -38 15 -72 t5 -64q0 -122 -43.5 -179.5t-136.5 -57.5q-48 0 -100.5 26.5t-114.5 81.5z" />
<glyph unicode="&#x1b0;" horiz-adv-x="1298" d="M990 994v119q61 -45 105 -66.5t75 -21.5q46 0 69 27.5t23 81.5q0 32 -7.5 63t-22.5 62h133q10 -38 15 -72t5 -64q0 -122 -43.5 -179.5t-136.5 -57.5q-48 0 -100.5 26.5t-114.5 81.5zM176 442v678h184v-671q0 -159 62 -238.5t186 -79.5q149 0 235.5 95t86.5 259v635h184 v-1120h-184v172q-67 -102 -155.5 -151.5t-205.5 -49.5q-193 0 -293 120t-100 351zM639 1147z" />
<glyph unicode="&#x1b1;" horiz-adv-x="1565" d="M1487 1304h-320q161 -141 232 -289t71 -342q0 -309 -192.5 -505.5t-495.5 -196.5q-305 0 -496.5 197t-191.5 515q0 184 72.5 333t230.5 288h-319v178h600v-178q-178 -97 -277.5 -263t-99.5 -368q0 -239 132.5 -384.5t348.5 -145.5t348 145t132 385q0 202 -99 368 t-276 263v178h600v-178z" />
<glyph unicode="&#x1b2;" horiz-adv-x="1476" d="M710 141q216 0 348 145t132 385q0 202 -99 368q-65 109 -175 196v68l179 -1q161 -141 232 -289t71 -342q0 -309 -192 -506q-191 -196 -496 -196l-77 2q-232 6 -329 122q-103 122 -103 392v1008h202v-1008q0 -194 55 -269t189 -75h63z" />
<glyph unicode="&#x1b3;" horiz-adv-x="1523" d="M1239 1351q-57 0 -78 -14q-37 -24 -54 -49l-380 -577v-711h-203v711l-528 782h217l414 -614l334 505q90 136 253 136q136 0 221 -92q85 -91 85 -201v-131h-170v121q0 54 -36.5 94t-74.5 40z" />
<glyph unicode="&#x1b4;" horiz-adv-x="1496" d="M659 -104q-78 -200 -152 -261t-198 -61h-147v154h108q76 0 118 36t93 170l33 84l-453 1102h195l350 -876l282 704q21 52 69 103q88 96 223 96q131 0 223.5 -95.5t92.5 -229.5v-114h-178v114q0 58 -40.5 100t-97.5 42t-98 -42q-20 -20 -30 -45z" />
<glyph unicode="&#x1b5;" horiz-adv-x="1403" d="M115 1493h1173v-154l-400 -495h281v-144h-397l-428 -530h967v-170h-1219v154l441 546h-299v144h415l387 479h-921v170z" />
<glyph unicode="&#x1b6;" horiz-adv-x="1075" d="M113 1120h874v-168l-251 -292h194v-144h-318l-317 -369h692v-147h-899v168l299 348h-212v144h336l269 313h-667v147z" />
<glyph unicode="&#x1b7;" horiz-adv-x="1364" d="M680 107q192 0 291 75q100 75 100 218q0 134 -92 207q-93 74 -258 74h-174v152l385 490h-772v170h1024v-154l-411 -490q106 0 234 -56q98 -42 184 -151q81 -104 81 -242q0 -220 -152 -342q-152 -121 -432 -121q-119 0 -244 19q-126 18 -260 55v195q106 -49 233 -74 q126 -25 263 -25z" />
<glyph unicode="&#x1b8;" horiz-adv-x="1364" d="M684 107q137 0 263 25q127 25 233 74v-195q-134 -37 -260 -55q-125 -19 -244 -19q-280 0 -432 121q-152 122 -152 342q0 138 81 242q86 109 184 151q128 56 234 56l-411 490v154h1024v-170h-772l385 -490v-152h-174q-165 0 -258 -74q-92 -73 -92 -207q0 -143 100 -218 q99 -75 291 -75z" />
<glyph unicode="&#x1b9;" horiz-adv-x="1183" d="M603 476l-411 476v168h874v-147h-667l430 -499v-166h-174q-165 0 -258 -74q-92 -75 -92 -207q0 -143 100 -218q99 -75 289 -75q109 0 209 25t184 74v-195q-106 -37 -206 -56q-99 -18 -193 -18q-280 0 -432 121t-152 342q0 138 81 242q86 109 184 151q128 56 234 56z" />
<glyph unicode="&#x1ba;" horiz-adv-x="1075" d="M639 -274q84 0 161 21q79 21 160 65v-179q-87 -32 -167 -45q-86 -14 -183 -14q-480 0 -480 281q0 238 406 291q284 37 284 135q0 124 -235 124h-290l485 568h-667v147h874v-168l-354 -412q367 0 367 -229q0 -276 -464 -325q-226 -24 -226 -121q0 -139 329 -139z" />
<glyph unicode="&#x1bb;" horiz-adv-x="1303" d="M393 170h705v-170h-948v170l314 320l115 117h-345v144h482q95 109 132 181q39 76 39 149q0 119 -83 194q-84 75 -218 75q-95 0 -200 -33q-106 -33 -226 -100v204q122 49 228 74t194 25q232 0 370 -116t138 -310q0 -92 -34 -174q-31 -73 -105 -169h104v-144h-236l-48 -49z " />
<glyph unicode="&#x1bc;" horiz-adv-x="1364" d="M294 400q0 -293 389 -293t389 293q0 134 -92.5 207.5t-257.5 73.5h-521v812h929v-170h-727v-475l371 1q256 1 418 -207q81 -104 81 -248t-59 -230l-28 -41q-20 -29 -65 -65q-152 -121 -438 -121t-438 121t-152 342h201z" />
<glyph unicode="&#x1bd;" horiz-adv-x="1183" d="M104 -167q170 -99 376 -99q406 0 406 293q0 134 -92.5 207.5t-257.5 73.5h-353v812h793v-170h-609v-474h221q105 0 219 -49.5t197 -155.5t83 -250t-59 -230l-28 -41q-20 -29 -65 -65q-152 -121 -432 -121q-187 0 -399 74v195z" />
<glyph unicode="&#x1be;" horiz-adv-x="1045" d="M545 998l-2 -125q170 -30 282 -149q108 -115 108 -285q0 -186 -110 -311q-137 -157 -412 -157q-85 0 -166 18q-81 17 -157 52v172q73 -40 157 -64q78 -22 158 -22q179 0 278 114q57 65 58 198q0 98 -58 174q-86 114 -278 114h-62l2 271h-229v164h229v276h202v-276h231 v-164h-231z" />
<glyph unicode="&#x1bf;" horiz-adv-x="1300" d="M371 -122v-304h-185v1546h185v-170q52 66 187 148q81 49 291 49q184 0 261 -112q78 -113 78 -266q0 -425 -817 -891zM371 60q626 400 626 649q0 133 -57 199q-56 65 -176 65q-220 0 -393 -239v-674z" />
<glyph unicode="&#x1c0;" horiz-adv-x="604" d="M201 1493h202v-1919h-202v1919z" />
<glyph unicode="&#x1c1;" horiz-adv-x="1008" d="M605 1493h202v-1919h-202v1919zM201 1493h202v-1919h-202v1919z" />
<glyph unicode="&#x1c2;" horiz-adv-x="940" d="M371 1493h202v-617h351v-168h-351v-240h351v-170h-351v-724h-202v724h-351v170h351v240h-351v168h351v617z" />
<glyph unicode="&#x1c3;" horiz-adv-x="605" d="M201 254h203v-254h-203v254zM201 1493h203v-655l-20 -357h-162l-21 357v655z" />
<glyph unicode="&#x1c4;" horiz-adv-x="2912" d="M1572 1493h1173v-154l-944 -1169h967v-170h-1219v154l944 1169h-921v170zM2065 1635l-211 266h139l166 -178l166 178h139l-211 -266h-188zM403 1327v-1161h244q309 0 452.5 140t143.5 442q0 300 -143.5 439.5t-452.5 139.5h-244zM201 1493h415q434 0 637 -180.5 t203 -564.5q0 -386 -204 -567t-636 -181h-415v1493z" />
<glyph unicode="&#x1c5;" horiz-adv-x="2660" d="M1606 1120h874v-168l-692 -805h692v-147h-899v168l692 805h-667v147zM1958 1262l-245 376h139l180 -245l180 245h139l-245 -376h-148zM403 1327v-1161h244q309 0 452.5 140t143.5 442q0 300 -143.5 439.5t-452.5 139.5h-244zM201 1493h415q434 0 637 -180.5t203 -564.5 q0 -386 -204 -567t-636 -181h-415v1493z" />
<glyph unicode="&#x1c6;" horiz-adv-x="2364" d="M1319 1120h874v-168l-692 -805h692v-147h-899v168l692 805h-667v147zM1671 1262l-245 376h139l180 -245l180 245h139l-245 -376h-148zM930 950v606h184v-1556h-184v168q-58 -100 -146.5 -148.5t-212.5 -48.5q-203 0 -330.5 162t-127.5 426t127.5 426t330.5 162 q124 0 212.5 -48.5t146.5 -148.5zM303 559q0 -203 83.5 -318.5t229.5 -115.5t230 115.5t84 318.5t-84 318.5t-230 115.5t-229.5 -115.5t-83.5 -318.5z" />
<glyph unicode="&#x1c7;" horiz-adv-x="1711" d="M1370 1493h202v-1389q0 -270 -102.5 -392t-329.5 -122h-77v170h63q134 0 189 75t55 269v1389zM201 1493h202v-1323h727v-170h-929v1493z" />
<glyph unicode="&#x1c8;" horiz-adv-x="1611" d="M1318 1120h184v-1140q0 -214 -81.5 -310t-262.5 -96h-70v156h49q105 0 143 48.5t38 201.5v1140zM1318 1556h184v-233h-184v233zM201 1493h202v-1323h727v-170h-929v1493z" />
<glyph unicode="&#x1c9;" horiz-adv-x="935" d="M567 1120h184v-1140q0 -214 -81.5 -310t-262.5 -96h-70v156h49q105 0 143 48.5t38 201.5v1140zM567 1556h184v-233h-184v233zM193 1556h184v-1556h-184v1556z" />
<glyph unicode="&#x1ca;" horiz-adv-x="1907" d="M1576 1493h202v-1389q0 -270 -102.5 -392t-329.5 -122h-77v170h63q134 0 189 75t55 269v1389zM201 1493h272l662 -1249v1249h196v-1493h-272l-662 1249v-1249h-196v1493z" />
<glyph unicode="&#x1cb;" horiz-adv-x="1892" d="M1535 1120h184v-1140q0 -214 -81.5 -310t-262.5 -96h-70v156h49q105 0 143 48.5t38 201.5v1140zM1535 1556h184v-233h-184v233zM201 1493h272l662 -1249v1249h196v-1493h-272l-662 1249v-1249h-196v1493z" />
<glyph unicode="&#x1cc;" horiz-adv-x="1633" d="M1318 1120h184v-1140q0 -214 -81.5 -310t-262.5 -96h-70v156h49q105 0 143 48.5t38 201.5v1140zM1318 1556h184v-233h-184v233zM1124 676v-676h-184v670q0 159 -62 238t-186 79q-149 0 -235 -95t-86 -259v-633h-185v1120h185v-174q66 101 155.5 151t206.5 50 q193 0 292 -119.5t99 -351.5z" />
<glyph unicode="&#x1cd;" horiz-adv-x="1401" d="M700 1294l-274 -743h549zM586 1493h229l569 -1493h-210l-136 383h-673l-136 -383h-213zM608 1635l-211 266h139l166 -178l166 178h139l-211 -266h-188z" />
<glyph unicode="&#x1ce;" horiz-adv-x="1255" d="M702 563q-223 0 -309 -51t-86 -174q0 -98 64.5 -155.5t175.5 -57.5q153 0 245.5 108.5t92.5 288.5v41h-183zM1069 639v-639h-184v170q-63 -102 -157 -150.5t-230 -48.5q-172 0 -273.5 96.5t-101.5 258.5q0 189 126.5 285t377.5 96h258v18q0 127 -83.5 196.5t-234.5 69.5 q-96 0 -187 -23t-175 -69v170q101 39 196 58.5t185 19.5q243 0 363 -126t120 -382zM528 1262l-245 376h139l180 -245l180 245h139l-245 -376h-148z" />
<glyph unicode="&#x1cf;" horiz-adv-x="604" d="M201 1493h202v-1493h-202v1493zM209 1635l-211 266h139l166 -178l166 178h139l-211 -266h-188z" />
<glyph unicode="&#x1d0;" horiz-adv-x="569" d="M193 1120h184v-1120h-184v1120zM285 1147zM213 1262l-245 376h139l180 -245l180 245h139l-245 -376h-148z" />
<glyph unicode="&#x1d1;" horiz-adv-x="1612" d="M807 1356q-220 0 -349.5 -164t-129.5 -447q0 -282 129.5 -446t349.5 -164t348.5 164t128.5 446q0 283 -128.5 447t-348.5 164zM807 1520q314 0 502 -210.5t188 -564.5q0 -353 -188 -563.5t-502 -210.5q-315 0 -503.5 210t-188.5 564t188.5 564.5t503.5 210.5zM713 1635 l-211 266h139l166 -178l166 178h139l-211 -266h-188z" />
<glyph unicode="&#x1d2;" horiz-adv-x="1253" d="M627 991q-148 0 -234 -115.5t-86 -316.5t85.5 -316.5t234.5 -115.5q147 0 233 116t86 316q0 199 -86 315.5t-233 116.5zM627 1147q240 0 377 -156t137 -432q0 -275 -137 -431.5t-377 -156.5q-241 0 -377.5 156.5t-136.5 431.5q0 276 136.5 432t377.5 156zM556 1262 l-245 376h139l180 -245l180 245h139l-245 -376h-148z" />
<glyph unicode="&#x1d3;" horiz-adv-x="1499" d="M178 1493h203v-907q0 -240 87 -345.5t282 -105.5q194 0 281 105.5t87 345.5v907h203v-932q0 -292 -144.5 -441t-426.5 -149q-283 0 -427.5 149t-144.5 441v932zM664 1635l-211 266h139l166 -178l166 178h139l-211 -266h-188z" />
<glyph unicode="&#x1d4;" horiz-adv-x="1298" d="M174 442v678h184v-671q0 -159 62 -238.5t186 -79.5q149 0 235.5 95t86.5 259v635h184v-1120h-184v172q-67 -102 -155.5 -151.5t-205.5 -49.5q-193 0 -293 120t-100 351zM637 1147zM556 1262l-245 376h139l180 -245l180 245h139l-245 -376h-148z" />
<glyph unicode="&#x1d5;" horiz-adv-x="1499" d="M450 2099h598v-148h-598v148zM842 1838h203v-203h-203v203zM451 1838h203v-203h-203v203zM178 1493h203v-907q0 -240 87 -345.5t282 -105.5q194 0 281 105.5t87 345.5v907h203v-932q0 -292 -144.5 -441t-426.5 -149q-283 0 -427.5 149t-144.5 441v932z" />
<glyph unicode="&#x1d6;" horiz-adv-x="1298" d="M336 1841h598v-148h-598v148zM174 442v678h184v-671q0 -159 62 -238.5t186 -79.5q149 0 235.5 95t86.5 259v635h184v-1120h-184v172q-67 -102 -155.5 -151.5t-205.5 -49.5q-193 0 -293 120t-100 351zM637 1147zM729 1552h203v-202h-203v202zM338 1552h203v-202h-203v202z " />
<glyph unicode="&#x1d7;" horiz-adv-x="1499" d="M178 1493h203v-907q0 -240 87 -345.5t282 -105.5q194 0 281 105.5t87 345.5v907h203v-932q0 -292 -144.5 -441t-426.5 -149q-283 0 -427.5 149t-144.5 441v932zM861 2138h185l-228 -264h-153zM848 1838h203v-203h-203v203zM457 1838h203v-203h-203v203z" />
<glyph unicode="&#x1d8;" horiz-adv-x="1298" d="M174 442v678h184v-671q0 -159 62 -238.5t186 -79.5q149 0 235.5 95t86.5 259v635h184v-1120h-184v172q-67 -102 -155.5 -151.5t-205.5 -49.5q-193 0 -293 120t-100 351zM637 1147zM741 1826h185l-228 -264h-153zM728 1526h203v-203h-203v203zM337 1526h203v-203h-203v203 z" />
<glyph unicode="&#x1d9;" horiz-adv-x="1499" d="M178 1493h203v-907q0 -240 87 -345.5t282 -105.5q194 0 281 105.5t87 345.5v907h203v-932q0 -292 -144.5 -441t-426.5 -149q-283 0 -427.5 149t-144.5 441v932zM654 1872l-211 266h139l166 -178l166 178h139l-211 -266h-188zM842 1838h203v-203h-203v203zM451 1838h203 v-203h-203v203z" />
<glyph unicode="&#x1da;" horiz-adv-x="1298" d="M174 442v678h184v-671q0 -159 62 -238.5t186 -79.5q149 0 235.5 95t86.5 259v635h184v-1120h-184v172q-67 -102 -155.5 -151.5t-205.5 -49.5q-193 0 -293 120t-100 351zM637 1147zM546 1560l-211 266h139l166 -178l166 178h139l-211 -266h-188zM734 1526h203v-203h-203 v203zM343 1526h203v-203h-203v203z" />
<glyph unicode="&#x1db;" horiz-adv-x="1499" d="M178 1493h203v-907q0 -240 87 -345.5t282 -105.5q194 0 281 105.5t87 345.5v907h203v-932q0 -292 -144.5 -441t-426.5 -149q-283 0 -427.5 149t-144.5 441v932zM643 2144l196 -264h-153l-230 264h187zM842 1844h203v-203h-203v203zM451 1844h203v-203h-203v203z" />
<glyph unicode="&#x1dc;" horiz-adv-x="1298" d="M174 442v678h184v-671q0 -159 62 -238.5t186 -79.5q149 0 235.5 95t86.5 259v635h184v-1120h-184v172q-67 -102 -155.5 -151.5t-205.5 -49.5q-193 0 -293 120t-100 351zM637 1147zM529 1826l196 -264h-153l-230 264h187zM728 1526h203v-203h-203v203zM337 1526h203v-203 h-203v203z" />
<glyph unicode="&#x1dd;" horiz-adv-x="1260" d="M113 512v90h846q-12 190 -114.5 289.5t-285.5 99.5q-106 0 -205.5 -26t-197.5 -78v174q99 42 203 64t211 22q268 0 424.5 -156t156.5 -422q0 -275 -148.5 -436.5t-400.5 -161.5q-226 0 -357.5 145.5t-131.5 395.5zM297 458q2 -151 84.5 -241t218.5 -90q154 0 246.5 87 t106.5 245z" />
<glyph unicode="&#x1de;" horiz-adv-x="1401" d="M700 1294l-274 -743h549zM586 1493h229l569 -1493h-210l-136 383h-673l-136 -383h-213zM402 2099h598v-148h-598v148zM794 1838h203v-203h-203v203zM403 1838h203v-203h-203v203z" />
<glyph unicode="&#x1df;" horiz-adv-x="1255" d="M702 563q-223 0 -309 -51t-86 -174q0 -98 64.5 -155.5t175.5 -57.5q153 0 245.5 108.5t92.5 288.5v41h-183zM1069 639v-639h-184v170q-63 -102 -157 -150.5t-230 -48.5q-172 0 -273.5 96.5t-101.5 258.5q0 189 126.5 285t377.5 96h258v18q0 127 -83.5 196.5t-234.5 69.5 q-96 0 -187 -23t-175 -69v170q101 39 196 58.5t185 19.5q243 0 363 -126t120 -382zM688 1552h203v-202h-203v202zM297 1552h203v-202h-203v202zM295 1841h598v-148h-598v148z" />
<glyph unicode="&#x1e0;" horiz-adv-x="1401" d="M700 1294l-274 -743h549zM586 1493h229l569 -1493h-210l-136 383h-673l-136 -383h-213zM598 1835h204v-205h-204v205zM402 2099h598v-148h-598v148z" />
<glyph unicode="&#x1e1;" horiz-adv-x="1255" d="M702 563q-223 0 -309 -51t-86 -174q0 -98 64.5 -155.5t175.5 -57.5q153 0 245.5 108.5t92.5 288.5v41h-183zM1069 639v-639h-184v170q-63 -102 -157 -150.5t-230 -48.5q-172 0 -273.5 96.5t-101.5 258.5q0 189 126.5 285t377.5 96h258v18q0 127 -83.5 196.5t-234.5 69.5 q-96 0 -187 -23t-175 -69v170q101 39 196 58.5t185 19.5q243 0 363 -126t120 -382zM489 1516h204v-205h-204v205zM293 1780h598v-148h-598v148z" />
<glyph unicode="&#x1e2;" horiz-adv-x="1995" d="M940 1844h598v-148h-598v148zM1845 1493v-170h-741v-442h711v-170h-711v-541h760v-170h-963v383h-528l-160 -383h-205l625 1493h1212zM772 1335l-330 -784h459v784h-129z" />
<glyph unicode="&#x1e3;" horiz-adv-x="2011" d="M701 1522h598v-148h-598v148zM1718 660q-1 151 -83.5 241t-219.5 90q-153 0 -245.5 -87t-106.5 -245zM995 963q74 90 180 137t238 47q226 0 358 -145.5t132 -395.5v-90h-846q12 -191 114 -291t285 -100q104 0 204 26.5t200 79.5v-174q-100 -42 -204 -64t-210 -22 q-167 0 -291 60.5t-201 179.5q-73 -120 -181 -180t-251 -60q-189 0 -294 93.5t-105 261.5q0 189 126.5 285t377.5 96h258v18q0 127 -83.5 196.5t-234.5 69.5q-96 0 -187 -23t-175 -69v170q101 39 196 58.5t185 19.5q142 0 248.5 -48t160.5 -136zM702 563q-223 0 -309 -51 t-86 -174q0 -98 64.5 -155.5t175.5 -57.5q153 0 245.5 108.5t92.5 288.5v41h-183z" />
<glyph unicode="&#x1e4;" horiz-adv-x="1587" d="M1419 780v-298h121v-88h-121v-255q-117 -83 -258 -125.5t-301 -42.5q-350 0 -547.5 204.5t-197.5 569.5q0 366 197.5 570.5t547.5 204.5q146 0 277.5 -36t242.5 -106v-215q-112 95 -238 143t-265 48q-274 0 -411.5 -153t-137.5 -456q0 -302 137.5 -455t411.5 -153 q107 0 191 18.5t151 57.5v181h-253v88h253v132h-330v166h530z" />
<glyph unicode="&#x1e5;" horiz-adv-x="1300" d="M930 573q0 200 -82.5 310t-231.5 110q-148 0 -230.5 -110t-82.5 -310q0 -199 82.5 -309t230.5 -110q149 0 231.5 110t82.5 309zM1114 139q0 -110 -19 -198h179v-70h-198q-31 -93 -89 -157q-127 -140 -389 -140q-97 0 -183 14.5t-167 44.5v179q81 -44 160 -65t161 -21 q181 0 271 95q21 23 38 51h-636v69h666q22 71 22 165v91q-57 -99 -146 -148t-213 -49q-206 0 -332 157t-126 416q0 260 126 417t332 157q124 0 213 -49t146 -148v170h184v-981z" />
<glyph unicode="&#x1e6;" horiz-adv-x="1587" d="M1219 213v401h-330v166h530v-641q-117 -83 -258 -125.5t-301 -42.5q-350 0 -547.5 204.5t-197.5 569.5q0 366 197.5 570.5t547.5 204.5q146 0 277.5 -36t242.5 -106v-215q-112 95 -238 143t-265 48q-274 0 -411.5 -153t-137.5 -456q0 -302 137.5 -455t411.5 -153 q107 0 191 18.5t151 57.5zM748 1635l-211 266h139l166 -178l166 178h139l-211 -266h-188z" />
<glyph unicode="&#x1e7;" horiz-adv-x="1300" d="M512 1259l-245 376h139l180 -245l180 245h139l-245 -376h-148zM930 573q0 200 -82.5 310t-231.5 110q-148 0 -230.5 -110t-82.5 -310q0 -199 82.5 -309t230.5 -110q149 0 231.5 110t82.5 309zM1114 139q0 -286 -127 -425.5t-389 -139.5q-97 0 -183 14.5t-167 44.5v179 q81 -44 160 -65t161 -21q181 0 271 94.5t90 285.5v91q-57 -99 -146 -148t-213 -49q-206 0 -332 157t-126 416q0 260 126 417t332 157q124 0 213 -49t146 -148v170h184v-981z" />
<glyph unicode="&#x1e8;" horiz-adv-x="1343" d="M580 1635l-211 266h139l166 -178l166 178h139l-211 -266h-188zM201 1493h202v-631l670 631h260l-741 -696l794 -797h-266l-717 719v-719h-202v1493z" />
<glyph unicode="&#x1e9;" horiz-adv-x="1186" d="M186 1556h185v-919l549 483h235l-594 -524l619 -596h-240l-569 547v-547h-185v1556zM188 1635l-211 266h139l166 -178l166 178h139l-211 -266h-188z" />
<glyph unicode="&#x1ea;" horiz-adv-x="1612" d="M748 0h119q-45 -61 -66.5 -105t-21.5 -75q0 -46 27.5 -69t81.5 -23q32 0 63 7.5t62 22.5v-133q-38 -10 -72 -15t-64 -5q-122 0 -179.5 43.5t-57.5 136.5q0 48 26.5 100.5t81.5 114.5zM807 1356q-220 0 -349.5 -164t-129.5 -447q0 -282 129.5 -446t349.5 -164t348.5 164 t128.5 446q0 283 -128.5 447t-348.5 164zM807 1520q314 0 502 -210.5t188 -564.5q0 -353 -188 -563.5t-502 -210.5q-315 0 -503.5 210t-188.5 564t188.5 564.5t503.5 210.5z" />
<glyph unicode="&#x1eb;" horiz-adv-x="1253" d="M568 0h119q-45 -61 -66.5 -105t-21.5 -75q0 -46 27.5 -69t81.5 -23q32 0 63 7.5t62 22.5v-133q-38 -10 -72 -15t-64 -5q-122 0 -179.5 43.5t-57.5 136.5q0 48 26.5 100.5t81.5 114.5zM627 991q-148 0 -234 -115.5t-86 -316.5t85.5 -316.5t234.5 -115.5q147 0 233 116 t86 316q0 199 -86 315.5t-233 116.5zM627 1147q240 0 377 -156t137 -432q0 -275 -137 -431.5t-377 -156.5q-241 0 -377.5 156.5t-136.5 431.5q0 276 136.5 432t377.5 156z" />
<glyph unicode="&#x1ec;" horiz-adv-x="1612" d="M508 1841h598v-148h-598v148zM748 0h119q-45 -61 -66.5 -105t-21.5 -75q0 -46 27.5 -69t81.5 -23q32 0 63 7.5t62 22.5v-133q-38 -10 -72 -15t-64 -5q-122 0 -179.5 43.5t-57.5 136.5q0 48 26.5 100.5t81.5 114.5zM807 1356q-220 0 -349.5 -164t-129.5 -447 q0 -282 129.5 -446t349.5 -164t348.5 164t128.5 446q0 283 -128.5 447t-348.5 164zM807 1520q314 0 502 -210.5t188 -564.5q0 -353 -188 -563.5t-502 -210.5q-315 0 -503.5 210t-188.5 564t188.5 564.5t503.5 210.5z" />
<glyph unicode="&#x1ed;" horiz-adv-x="1253" d="M328 1525h598v-148h-598v148zM568 0h119q-45 -61 -66.5 -105t-21.5 -75q0 -46 27.5 -69t81.5 -23q32 0 63 7.5t62 22.5v-133q-38 -10 -72 -15t-64 -5q-122 0 -179.5 43.5t-57.5 136.5q0 48 26.5 100.5t81.5 114.5zM627 991q-148 0 -234 -115.5t-86 -316.5t85.5 -316.5 t234.5 -115.5q147 0 233 116t86 316q0 199 -86 315.5t-233 116.5zM627 1147q240 0 377 -156t137 -432q0 -275 -137 -431.5t-377 -156.5q-241 0 -377.5 156.5t-136.5 431.5q0 276 136.5 432t377.5 156z" />
<glyph unicode="&#x1ee;" horiz-adv-x="1364" d="M608 1635l-211 266h139l166 -178l166 178h139l-211 -266h-188zM680 107q192 0 291 75q100 75 100 218q0 134 -92 207q-93 74 -258 74h-174v152l385 490h-772v170h1024v-154l-411 -490q106 0 234 -56q98 -42 184 -151q81 -104 81 -242q0 -220 -152 -342 q-152 -121 -432 -121q-119 0 -244 19q-126 18 -260 55v195q106 -49 233 -74q126 -25 263 -25z" />
<glyph unicode="&#x1ef;" horiz-adv-x="1183" d="M465 1262l-245 376h139l180 -245l180 245h139l-245 -376h-148zM572 476q106 0 234 -56q98 -42 184 -151q81 -104 81 -242q0 -221 -152 -342t-432 -121q-94 0 -193 18q-100 19 -206 56v195q84 -49 184 -74t209 -25q190 0 289 75q100 75 100 218q0 132 -92 207 q-93 74 -258 74h-174v166l430 499h-667v147h874v-168z" />
<glyph unicode="&#x1f0;" horiz-adv-x="569" d="M219 1262l-245 376h139l180 -245l180 245h139l-245 -376h-148zM193 1120h184v-1140q0 -214 -81.5 -310t-262.5 -96h-70v156h49q105 0 143 48.5t38 201.5v1140z" />
<glyph unicode="&#x1f1;" horiz-adv-x="2912" d="M1572 1493h1173v-154l-944 -1169h967v-170h-1219v154l944 1169h-921v170zM403 1327v-1161h244q309 0 452.5 140t143.5 442q0 300 -143.5 439.5t-452.5 139.5h-244zM201 1493h415q434 0 637 -180.5t203 -564.5q0 -386 -204 -567t-636 -181h-415v1493z" />
<glyph unicode="&#x1f2;" horiz-adv-x="2660" d="M1606 1120h874v-168l-692 -805h692v-147h-899v168l692 805h-667v147zM403 1327v-1161h244q309 0 452.5 140t143.5 442q0 300 -143.5 439.5t-452.5 139.5h-244zM201 1493h415q434 0 637 -180.5t203 -564.5q0 -386 -204 -567t-636 -181h-415v1493z" />
<glyph unicode="&#x1f3;" horiz-adv-x="2364" d="M1319 1120h874v-168l-692 -805h692v-147h-899v168l692 805h-667v147zM930 950v606h184v-1556h-184v168q-58 -100 -146.5 -148.5t-212.5 -48.5q-203 0 -330.5 162t-127.5 426t127.5 426t330.5 162q124 0 212.5 -48.5t146.5 -148.5zM303 559q0 -203 83.5 -318.5 t229.5 -115.5t230 115.5t84 318.5t-84 318.5t-230 115.5t-229.5 -115.5t-83.5 -318.5z" />
<glyph unicode="&#x1f4;" horiz-adv-x="1587" d="M850 1900h185l-228 -264h-153zM1219 213v401h-330v166h530v-641q-117 -83 -258 -125.5t-301 -42.5q-350 0 -547.5 204.5t-197.5 569.5q0 366 197.5 570.5t547.5 204.5q146 0 277.5 -36t242.5 -106v-215q-112 95 -238 143t-265 48q-274 0 -411.5 -153t-137.5 -456 q0 -302 137.5 -455t411.5 -153q107 0 191 18.5t151 57.5z" />
<glyph unicode="&#x1f5;" horiz-adv-x="1300" d="M930 573q0 200 -82.5 310t-231.5 110q-148 0 -230.5 -110t-82.5 -310q0 -199 82.5 -309t230.5 -110q149 0 231.5 110t82.5 309zM1114 139q0 -286 -127 -425.5t-389 -139.5q-97 0 -183 14.5t-167 44.5v179q81 -44 160 -65t161 -21q181 0 271 94.5t90 285.5v91 q-57 -99 -146 -148t-213 -49q-206 0 -332 157t-126 416q0 260 126 417t332 157q124 0 213 -49t146 -148v170h184v-981zM678 1635h199l-326 -376h-153z" />
<glyph unicode="&#x1f6;" horiz-adv-x="2279" d="M201 1493h202v-612h734v612h202v-1044q0 -159 62 -239q61 -78 214 -79q148 0 214 79q62 75 62 239v671h202v-678q0 -223 -100 -351q-96 -120 -378 -120q-275 0 -378 120q-100 118 -100 351v269h-734v-711h-202v1493z" />
<glyph unicode="&#x1f7;" horiz-adv-x="1397" d="M403 156v-582h-202v1919h202v-185q56 72 201 159q87 53 313 53q198 0 281 -120q84 -122 84 -286q0 -457 -879 -958zM403 351q673 430 673 698q0 143 -61 214q-60 70 -189 70q-237 0 -423 -257v-725z" />
<glyph unicode="&#x1f8;" horiz-adv-x="1532" d="M741 1899l196 -264h-153l-230 264h187zM201 1493h272l662 -1249v1249h196v-1493h-272l-662 1249v-1249h-196v1493z" />
<glyph unicode="&#x1f9;" horiz-adv-x="1298" d="M1124 676v-676h-184v670q0 159 -62 238t-186 79q-149 0 -235 -95t-86 -259v-633h-185v1120h185v-174q66 101 155.5 151t206.5 50q193 0 292 -119.5t99 -351.5zM647 1636l282 -374h-153l-326 374h197z" />
<glyph unicode="&#x1fa;" horiz-adv-x="1401" d="M852 1626q0 63 -44.5 107.5t-107.5 44.5q-64 0 -107.5 -43.5t-43.5 -108.5q0 -63 44 -107t107 -44t107.5 44t44.5 107zM700 1294l-272 -743h545zM549 1397q-61 41 -92 98.5t-31 130.5q0 115 79.5 195t194.5 80q114 0 194.5 -80.5t80.5 -194.5q0 -70 -31.5 -129 t-91.5 -100l532 -1397h-210l-136 383h-673l-136 -383h-213zM1171 1907h185l-228 -264h-153z" />
<glyph unicode="&#x1fb;" horiz-adv-x="1255" d="M702 563q-223 0 -309 -51t-86 -174q0 -98 64.5 -155.5t175.5 -57.5q153 0 245.5 108.5t92.5 288.5v41h-183zM1069 639v-639h-184v170q-63 -102 -157 -150.5t-230 -48.5q-172 0 -273.5 96.5t-101.5 258.5q0 189 126.5 285t377.5 96h258v18q0 127 -83.5 196.5t-234.5 69.5 q-96 0 -187 -23t-175 -69v170q101 39 196 58.5t185 19.5q243 0 363 -126t120 -382zM746 1524q0 63 -44 107t-108 44q-65 0 -108.5 -43.5t-43.5 -107.5q0 -65 43.5 -108.5t108.5 -43.5q64 0 108 44t44 108zM868 1524q0 -115 -79.5 -195t-194.5 -80t-194.5 80t-79.5 195 t79.5 194.5t194.5 79.5t194.5 -79.5t79.5 -194.5zM1059 1907h185l-228 -264h-153z" />
<glyph unicode="&#x1fc;" horiz-adv-x="1995" d="M1171 1900h185l-228 -264h-153zM1845 1493v-170h-741v-442h711v-170h-711v-541h760v-170h-963v383h-528l-160 -383h-205l625 1493h1212zM772 1335l-330 -784h459v784h-129z" />
<glyph unicode="&#x1fd;" horiz-adv-x="2011" d="M1718 660q-1 151 -83.5 241t-219.5 90q-153 0 -245.5 -87t-106.5 -245zM995 963q74 90 180 137t238 47q226 0 358 -145.5t132 -395.5v-90h-846q12 -191 114 -291t285 -100q104 0 204 26.5t200 79.5v-174q-100 -42 -204 -64t-210 -22q-167 0 -291 60.5t-201 179.5 q-73 -120 -181 -180t-251 -60q-189 0 -294 93.5t-105 261.5q0 189 126.5 285t377.5 96h258v18q0 127 -83.5 196.5t-234.5 69.5q-96 0 -187 -23t-175 -69v170q101 39 196 58.5t185 19.5q142 0 248.5 -48t160.5 -136zM702 563q-223 0 -309 -51t-86 -174q0 -98 64.5 -155.5 t175.5 -57.5q153 0 245.5 108.5t92.5 288.5v41h-183zM1008 1635h199l-326 -376h-153z" />
<glyph unicode="&#x1fe;" horiz-adv-x="1612" d="M821 1900h185l-228 -264h-153zM1206 1112l-717 -846q62 -64 142.5 -97.5t175.5 -33.5q220 0 348.5 164t128.5 446q0 112 -19.5 204t-58.5 163zM1124 1225q-61 64 -141.5 97.5t-175.5 33.5q-220 0 -349.5 -164t-129.5 -447q0 -112 19.5 -206t58.5 -162zM272 219 q-78 102 -117.5 234t-39.5 292q0 354 188.5 564.5t503.5 210.5q130 0 240.5 -38.5t197.5 -113.5l162 191l102 -89l-170 -198q78 -103 118 -236t40 -291q0 -353 -188 -563.5t-502 -210.5q-128 0 -238.5 37.5t-201.5 112.5l-162 -191l-103 88z" />
<glyph unicode="&#x1ff;" horiz-adv-x="1253" d="M905 801l-487 -592q41 -42 92.5 -62t116.5 -20q147 0 233 116t86 316q0 79 -10 137.5t-31 104.5zM834 909q-42 41 -93.5 61.5t-113.5 20.5q-151 0 -235.5 -117.5t-84.5 -328.5q0 -72 9.5 -127t29.5 -101zM221 166q-54 77 -81 175.5t-27 217.5q0 276 136.5 432t377.5 156 q93 0 172.5 -25.5t146.5 -77.5l139 168l95 -79l-146 -179q53 -77 80 -176t27 -219q0 -275 -137 -431.5t-377 -156.5q-96 0 -176.5 26t-143.5 77l-139 -168l-96 78zM679 1635h199l-326 -376h-153z" />
<glyph unicode="&#x200;" horiz-adv-x="1401" d="M700 1294l-274 -743h549zM586 1493h229l569 -1493h-210l-136 383h-673l-136 -383h-213zM492 1904l196 -264h-153l-228 264h185zM827 1904l196 -264h-153l-228 264h185z" />
<glyph unicode="&#x201;" horiz-adv-x="1255" d="M423 1636l205 -376h-135l-248 376h178zM757 1636l190 -376h-137l-223 376h170zM702 563q-223 0 -309 -51t-86 -174q0 -98 64.5 -155.5t175.5 -57.5q153 0 245.5 108.5t92.5 288.5v41h-183zM1069 639v-639h-184v170q-63 -102 -157 -150.5t-230 -48.5q-172 0 -273.5 96.5 t-101.5 258.5q0 189 126.5 285t377.5 96h258v18q0 127 -83.5 196.5t-234.5 69.5q-96 0 -187 -23t-175 -69v170q101 39 196 58.5t185 19.5q243 0 363 -126t120 -382z" />
<glyph unicode="&#x202;" horiz-adv-x="1401" d="M700 1294l-274 -743h549zM586 1493h229l569 -1493h-210l-136 383h-673l-136 -383h-213zM1013 1604h-118q-13 54 -62.5 82.5t-132.5 28.5q-82 0 -130.5 -27.5t-64.5 -83.5h-118q10 119 90 180.5t223 61.5q144 0 223.5 -61t89.5 -181z" />
<glyph unicode="&#x203;" horiz-adv-x="1255" d="M918 1321h-118q-11 75 -59.5 112.5t-135.5 37.5q-86 0 -134 -37t-61 -113h-118q10 143 89 215t224 72t224 -72t89 -215zM702 563q-223 0 -309 -51t-86 -174q0 -98 64.5 -155.5t175.5 -57.5q153 0 245.5 108.5t92.5 288.5v41h-183zM1069 639v-639h-184v170 q-63 -102 -157 -150.5t-230 -48.5q-172 0 -273.5 96.5t-101.5 258.5q0 189 126.5 285t377.5 96h258v18q0 127 -83.5 196.5t-234.5 69.5q-96 0 -187 -23t-175 -69v170q101 39 196 58.5t185 19.5q243 0 363 -126t120 -382z" />
<glyph unicode="&#x204;" horiz-adv-x="1294" d="M201 1493h944v-170h-742v-442h711v-170h-711v-541h760v-170h-962v1493zM428 1904l196 -264h-153l-228 264h185zM763 1904l196 -264h-153l-228 264h185z" />
<glyph unicode="&#x205;" horiz-adv-x="1260" d="M457 1635l205 -376h-135l-248 376h178zM791 1635l190 -376h-137l-223 376h170zM1151 606v-90h-846q12 -190 114.5 -289.5t285.5 -99.5q106 0 205.5 26t197.5 78v-174q-99 -42 -203 -64t-211 -22q-268 0 -424.5 156t-156.5 422q0 275 148.5 436.5t400.5 161.5 q226 0 357.5 -145.5t131.5 -395.5zM967 660q-2 151 -84.5 241t-218.5 90q-154 0 -246.5 -87t-106.5 -245z" />
<glyph unicode="&#x206;" horiz-adv-x="1294" d="M201 1493h944v-170h-742v-442h711v-170h-711v-541h760v-170h-962v1493zM991 1604h-118q-13 54 -62.5 82.5t-132.5 28.5q-82 0 -130.5 -27.5t-64.5 -83.5h-118q10 119 90 180.5t223 61.5q144 0 223.5 -61t89.5 -181z" />
<glyph unicode="&#x207;" horiz-adv-x="1260" d="M986 1321h-118q-11 75 -59.5 112.5t-135.5 37.5q-86 0 -134 -37t-61 -113h-118q10 143 89 215t224 72t224 -72t89 -215zM1151 606v-90h-846q12 -190 114.5 -289.5t285.5 -99.5q106 0 205.5 26t197.5 78v-174q-99 -42 -203 -64t-211 -22q-268 0 -424.5 156t-156.5 422 q0 275 148.5 436.5t400.5 161.5q226 0 357.5 -145.5t131.5 -395.5zM967 660q-2 151 -84.5 241t-218.5 90q-154 0 -246.5 -87t-106.5 -245z" />
<glyph unicode="&#x208;" horiz-adv-x="604" d="M201 1493h202v-1493h-202v1493zM96 1904l196 -264h-153l-228 264h185zM431 1904l196 -264h-153l-228 264h185z" />
<glyph unicode="&#x209;" horiz-adv-x="569" d="M117 1635l205 -376h-135l-248 376h178zM451 1635l190 -376h-137l-223 376h170zM193 1120h184v-1120h-184v1120zM285 1147z" />
<glyph unicode="&#x20a;" horiz-adv-x="604" d="M201 1493h202v-1493h-202v1493zM631 1604h-118q-13 54 -62.5 82.5t-132.5 28.5q-82 0 -130.5 -27.5t-64.5 -83.5h-118q10 119 90 180.5t223 61.5q144 0 223.5 -61t89.5 -181z" />
<glyph unicode="&#x20b;" horiz-adv-x="569" d="M597 1321h-118q-11 75 -59.5 112.5t-135.5 37.5q-86 0 -134 -37t-61 -113h-118q10 143 89 215t224 72t224 -72t89 -215zM193 1120h184v-1120h-184v1120zM285 1147z" />
<glyph unicode="&#x20c;" horiz-adv-x="1612" d="M807 1356q-220 0 -349.5 -164t-129.5 -447q0 -282 129.5 -446t349.5 -164t348.5 164t128.5 446q0 283 -128.5 447t-348.5 164zM807 1520q314 0 502 -210.5t188 -564.5q0 -353 -188 -563.5t-502 -210.5q-315 0 -503.5 210t-188.5 564t188.5 564.5t503.5 210.5zM584 1904 l196 -264h-153l-228 264h185zM919 1904l196 -264h-153l-228 264h185z" />
<glyph unicode="&#x20d;" horiz-adv-x="1253" d="M430 1636l205 -376h-135l-248 376h178zM764 1636l190 -376h-137l-223 376h170zM627 991q-148 0 -234 -115.5t-86 -316.5t85.5 -316.5t234.5 -115.5q147 0 233 116t86 316q0 199 -86 315.5t-233 116.5zM627 1147q240 0 377 -156t137 -432q0 -275 -137 -431.5t-377 -156.5 q-241 0 -377.5 156.5t-136.5 431.5q0 276 136.5 432t377.5 156z" />
<glyph unicode="&#x20e;" horiz-adv-x="1612" d="M807 1356q-220 0 -349.5 -164t-129.5 -447q0 -282 129.5 -446t349.5 -164t348.5 164t128.5 446q0 283 -128.5 447t-348.5 164zM807 1520q314 0 502 -210.5t188 -564.5q0 -353 -188 -563.5t-502 -210.5q-315 0 -503.5 210t-188.5 564t188.5 564.5t503.5 210.5zM1109 1604 h-118q-13 54 -62.5 82.5t-132.5 28.5q-82 0 -130.5 -27.5t-64.5 -83.5h-118q10 119 90 180.5t223 61.5q144 0 223.5 -61t89.5 -181z" />
<glyph unicode="&#x20f;" horiz-adv-x="1253" d="M969 1321h-118q-11 75 -59.5 112.5t-135.5 37.5q-86 0 -134 -37t-61 -113h-118q10 143 89 215t224 72t224 -72t89 -215zM627 991q-148 0 -234 -115.5t-86 -316.5t85.5 -316.5t234.5 -115.5q147 0 233 116t86 316q0 199 -86 315.5t-233 116.5zM627 1147q240 0 377 -156 t137 -432q0 -275 -137 -431.5t-377 -156.5q-241 0 -377.5 156.5t-136.5 431.5q0 276 136.5 432t377.5 156z" />
<glyph unicode="&#x210;" horiz-adv-x="1423" d="M909 700q65 -22 126.5 -94t123.5 -198l205 -408h-217l-191 383q-74 150 -143.5 199t-189.5 49h-220v-631h-202v1493h456q256 0 382 -107t126 -323q0 -141 -65.5 -234t-190.5 -129zM403 1327v-530h254q146 0 220.5 67.5t74.5 198.5t-74.5 197.5t-220.5 66.5h-254z M384 1904l196 -264h-153l-228 264h185zM719 1904l196 -264h-153l-228 264h185z" />
<glyph unicode="&#x211;" horiz-adv-x="842" d="M308 1635l205 -376h-135l-248 376h178zM642 1635l190 -376h-137l-223 376h170zM842 948q-31 18 -67.5 26.5t-80.5 8.5q-156 0 -239.5 -101.5t-83.5 -291.5v-590h-185v1120h185v-174q58 102 151 151.5t226 49.5q19 0 42 -2.5t51 -7.5z" />
<glyph unicode="&#x212;" horiz-adv-x="1423" d="M909 700q65 -22 126.5 -94t123.5 -198l205 -408h-217l-191 383q-74 150 -143.5 199t-189.5 49h-220v-631h-202v1493h456q256 0 382 -107t126 -323q0 -141 -65.5 -234t-190.5 -129zM403 1327v-530h254q146 0 220.5 67.5t74.5 198.5t-74.5 197.5t-220.5 66.5h-254z M953 1604h-118q-13 54 -62.5 82.5t-132.5 28.5q-82 0 -130.5 -27.5t-64.5 -83.5h-118q10 119 90 180.5t223 61.5q144 0 223.5 -61t89.5 -181z" />
<glyph unicode="&#x213;" horiz-adv-x="842" d="M862 1321h-118q-11 75 -59.5 112.5t-135.5 37.5q-86 0 -134 -37t-61 -113h-118q10 143 89 215t224 72t224 -72t89 -215zM842 948q-31 18 -67.5 26.5t-80.5 8.5q-156 0 -239.5 -101.5t-83.5 -291.5v-590h-185v1120h185v-174q58 102 151 151.5t226 49.5q19 0 42 -2.5 t51 -7.5z" />
<glyph unicode="&#x214;" horiz-adv-x="1499" d="M178 1493h203v-907q0 -240 87 -345.5t282 -105.5q194 0 281 105.5t87 345.5v907h203v-932q0 -292 -144.5 -441t-426.5 -149q-283 0 -427.5 149t-144.5 441v932zM540 1904l196 -264h-153l-228 264h185zM875 1904l196 -264h-153l-228 264h185z" />
<glyph unicode="&#x215;" horiz-adv-x="1298" d="M483 1636l205 -376h-135l-248 376h178zM817 1636l190 -376h-137l-223 376h170zM174 442v678h184v-671q0 -159 62 -238.5t186 -79.5q149 0 235.5 95t86.5 259v635h184v-1120h-184v172q-67 -102 -155.5 -151.5t-205.5 -49.5q-193 0 -293 120t-100 351zM637 1147z" />
<glyph unicode="&#x216;" horiz-adv-x="1499" d="M178 1493h203v-907q0 -240 87 -345.5t282 -105.5q194 0 281 105.5t87 345.5v907h203v-932q0 -292 -144.5 -441t-426.5 -149q-283 0 -427.5 149t-144.5 441v932zM1061 1604h-118q-13 54 -62.5 82.5t-132.5 28.5q-82 0 -130.5 -27.5t-64.5 -83.5h-118q10 119 90 180.5 t223 61.5q144 0 223.5 -61t89.5 -181z" />
<glyph unicode="&#x217;" horiz-adv-x="1298" d="M988 1321h-118q-11 75 -59.5 112.5t-135.5 37.5q-86 0 -134 -37t-61 -113h-118q10 143 89 215t224 72t224 -72t89 -215zM174 442v678h184v-671q0 -159 62 -238.5t186 -79.5q149 0 235.5 95t86.5 259v635h184v-1120h-184v172q-67 -102 -155.5 -151.5t-205.5 -49.5 q-193 0 -293 120t-100 351zM637 1147z" />
<glyph unicode="&#x218;" horiz-adv-x="1300" d="M562 -172h211l-164 -320h-129zM1096 1444v-197q-115 55 -217 82t-197 27q-165 0 -254.5 -64t-89.5 -182q0 -99 59.5 -149.5t225.5 -81.5l122 -25q226 -43 333.5 -151.5t107.5 -290.5q0 -217 -145.5 -329t-426.5 -112q-106 0 -225.5 24t-247.5 71v208q123 -69 241 -104 t232 -35q173 0 267 68t94 194q0 110 -67.5 172t-221.5 93l-123 24q-226 45 -327 141t-101 267q0 198 139.5 312t384.5 114q105 0 214 -19t223 -57z" />
<glyph unicode="&#x219;" horiz-adv-x="1067" d="M488 -172h211l-164 -320h-129zM907 1087v-174q-78 40 -162 60t-174 20q-137 0 -205.5 -42t-68.5 -126q0 -64 49 -100.5t197 -69.5l63 -14q196 -42 278.5 -118.5t82.5 -213.5q0 -156 -123.5 -247t-339.5 -91q-90 0 -187.5 17.5t-205.5 52.5v190q102 -53 201 -79.5 t196 -26.5q130 0 200 44.5t70 125.5q0 75 -50.5 115t-221.5 77l-64 15q-171 36 -247 110.5t-76 204.5q0 158 112 244t318 86q102 0 192 -15t166 -45z" />
<glyph unicode="&#x21a;" horiz-adv-x="1251" d="M527 -172h211l-164 -320h-129zM-6 1493h1263v-170h-530v-1323h-203v1323h-530v170z" />
<glyph unicode="&#x21b;" horiz-adv-x="803" d="M444 -172h211l-164 -320h-129zM375 1438v-318h379v-143h-379v-608q0 -137 37.5 -176t152.5 -39h189v-154h-189q-213 0 -294 79.5t-81 289.5v608h-135v143h135v318h185z" />
<glyph unicode="&#x21c;" horiz-adv-x="1284" d="M831 674q308 -67 308 -360q0 -112 -55.5 -215t-148 -183t-220.5 -148t-267 -116t-292 -82v160q200 55 352.5 125t245 146.5t138.5 155t46 157.5q0 101 -62.5 167t-174.5 66q-95 0 -210 -51l-163 -72v171l248 106q60 26 111 58.5t103 82t82.5 119t30.5 151.5 q0 55 -17.5 98t-45 68.5t-65 42.5t-73.5 23t-74 6q-184 0 -427 -184v190q239 164 445 164q131 0 232.5 -43t163.5 -134t62 -219q0 -60 -11.5 -111t-40.5 -107.5t-84 -114.5t-137 -117z" />
<glyph unicode="&#x21d;" horiz-adv-x="1068" d="M679 461q70 -8 126 -42t87 -79t47.5 -89t16.5 -81q0 -75 -33 -144t-87 -123t-130 -102.5t-154.5 -83.5t-168 -65.5t-164 -50t-148.5 -34.5v130q162 46 284.5 94t201.5 93.5t128.5 94.5t69.5 94.5t20 96.5q0 88 -59 144t-152 56q-59 0 -122 -25l-216 -86v139l223 85 q34 13 66.5 29t76 46t75 64.5t54 85.5t22.5 108q0 44 -15.5 79t-40 56t-58 34.5t-66 18.5t-67.5 5q-69 0 -153 -29.5t-231 -119.5v154q266 133 400 133q112 0 204 -35.5t150 -108.5t58 -170q0 -110 -51.5 -186.5t-193.5 -185.5z" />
<glyph unicode="&#x21e;" horiz-adv-x="1540" d="M678 1635l-211 266h139l166 -178l166 178h139l-211 -266h-188zM201 1493h202v-612h734v612h202v-1493h-202v711h-734v-711h-202v1493z" />
<glyph unicode="&#x21f;" horiz-adv-x="1298" d="M195 1635l-211 266h139l166 -178l166 178h139l-211 -266h-188zM1124 676v-676h-184v670q0 159 -62 238t-186 79q-149 0 -235 -95t-86 -259v-633h-185v1556h185v-610q66 101 155.5 151t206.5 50q193 0 292 -119.5t99 -351.5z" />
<glyph unicode="&#x220;" horiz-adv-x="1506" d="M1104 895q0 215 -77 321.5t-230 106.5q-179 0 -286.5 -127.5t-107.5 -349.5v-846h-202v1493h202v-241q81 135 183 202t259 66q227 0 343.5 -159.5t116.5 -467.5v-1319h-201v1321z" />
<glyph unicode="&#x221;" horiz-adv-x="1716" d="M1206 130q17 -5 54 -5q160 0 160 175q0 45 -52 46q-52 0 -162 -216zM1114 314q110 184 246 184q244 0 244 -206q0 -321 -342 -321q-73 0 -126 15q-34 -72 -58 -130h-196q29 69 96 216q-48 60 -48 96q-58 -100 -146 -148q-89 -49 -213 -49q-203 0 -331 162 q-127 162 -127 426t127 426q128 162 331 162q124 0 213 -49q88 -48 146 -148v606h184v-1242zM303 559q0 -203 83 -319q84 -115 230 -115t230 115q84 116 84 319t-84 319q-84 115 -230 115t-230 -115q-83 -116 -83 -319z" />
<glyph unicode="&#x222;" horiz-adv-x="1430" d="M715 709q-184 0 -290 -77q-107 -77 -107 -212t107 -212q106 -77 290 -77t291 77q107 78 107 212q0 135 -106 212t-292 77zM657 1260q-130 -3 -215 -65t-85 -141q0 -69 95 -141q59 -45 263 -45q168 0 263 65q96 65 96 201q0 158 -76 201q-109 77 -239 85v100 q228 0 378 -104q139 -97 139 -283q0 -128 -85 -217t-237 -121q172 -34 267 -133q96 -99 96 -242q0 -217 -156 -333q-155 -116 -446 -116t-446 116q-156 116 -156 333q0 143 96 242q97 99 268 133q-171 31 -238 101q-85 89 -85 177q0 130 130 213q116 74 373 74v-100z" />
<glyph unicode="&#x223;" horiz-adv-x="1250" d="M625 709q-144 0 -227 -77q-82 -77 -82 -212t82 -212q83 -77 227 -77t227 77q83 78 83 212q0 135 -83 212q-82 77 -227 77zM1024 1295q58 -64 58 -162q0 -153 -52 -217q-72 -89 -202 -121q146 -34 228 -133q81 -99 81 -242q0 -217 -133 -333q-132 -116 -379 -116t-379 116 q-133 116 -133 333q0 143 82 242t228 133q-144 35 -203 121q-52 75 -52 217q0 89 63 162h161q-43 -65 -43 -181t73 -181q72 -65 203 -65q130 0 203 65q74 65 74 181q0 119 -44 181h166z" />
<glyph unicode="&#x224;" horiz-adv-x="1403" d="M1311 -20q0 -289 -158 -369q-72 -37 -186 -37h-254v156h233q105 0 143 48q38 49 38 202v20h-1035v154l944 1169h-921v170h1173v-154l-944 -1169h967v-190z" />
<glyph unicode="&#x225;" horiz-adv-x="1075" d="M987 -20q0 -289 -158 -369q-72 -37 -186 -37h-254v156h233q105 0 143 48q38 49 38 202v20h-715v168l692 805h-667v147h874v-168l-692 -805h692v-167z" />
<glyph unicode="&#x226;" horiz-adv-x="1401" d="M598 1872h204v-205h-204v205zM700 1294l-274 -743h549zM586 1493h229l569 -1493h-210l-136 383h-673l-136 -383h-213z" />
<glyph unicode="&#x227;" horiz-adv-x="1255" d="M492 1556h184v-233h-184v233zM586 1147zM702 563q-223 0 -309 -51t-86 -174q0 -98 64.5 -155.5t175.5 -57.5q153 0 245.5 108.5t92.5 288.5v41h-183zM1069 639v-639h-184v170q-63 -102 -157 -150.5t-230 -48.5q-172 0 -273.5 96.5t-101.5 258.5q0 189 126.5 285t377.5 96 h258v18q0 127 -83.5 196.5t-234.5 69.5q-96 0 -187 -23t-175 -69v170q101 39 196 58.5t185 19.5q243 0 363 -126t120 -382z" />
<glyph unicode="&#x228;" horiz-adv-x="1294" d="M201 1493h944v-170h-742v-442h711v-170h-711v-541h760v-170h-962v1493zM758 0q55 -62 82 -114.5t27 -100.5q0 -89 -60 -134.5t-178 -45.5q-46 0 -89.5 6t-86.5 18v131q34 -17 71 -24.5t84 -7.5q59 0 89 24t30 70q0 30 -21.5 73.5t-66.5 104.5h119z" />
<glyph unicode="&#x229;" horiz-adv-x="1260" d="M1151 606v-90h-846q12 -190 114.5 -289.5t285.5 -99.5q106 0 205.5 26t197.5 78v-174q-99 -42 -203 -64t-211 -22q-268 0 -424.5 156t-156.5 422q0 275 148.5 436.5t400.5 161.5q226 0 357.5 -145.5t131.5 -395.5zM967 660q-2 151 -84.5 241t-218.5 90q-154 0 -246.5 -87 t-106.5 -245zM719 0q55 -62 82 -114.5t27 -100.5q0 -89 -60 -134.5t-178 -45.5q-46 0 -89.5 6t-86.5 18v131q34 -17 71 -24.5t84 -7.5q59 0 89 24t30 70q0 30 -21.5 73.5t-66.5 104.5h119z" />
<glyph unicode="&#x22a;" horiz-adv-x="1612" d="M807 1356q-220 0 -349.5 -164t-129.5 -447q0 -282 129.5 -446t349.5 -164t348.5 164t128.5 446q0 283 -128.5 447t-348.5 164zM807 1520q314 0 502 -210.5t188 -564.5q0 -353 -188 -563.5t-502 -210.5q-315 0 -503.5 210t-188.5 564t188.5 564.5t503.5 210.5zM500 2099 h598v-148h-598v148zM892 1838h203v-203h-203v203zM501 1838h203v-203h-203v203z" />
<glyph unicode="&#x22b;" horiz-adv-x="1253" d="M627 991q-148 0 -234 -115.5t-86 -316.5t85.5 -316.5t234.5 -115.5q147 0 233 116t86 316q0 199 -86 315.5t-233 116.5zM627 1147q240 0 377 -156t137 -432q0 -275 -137 -431.5t-377 -156.5q-241 0 -377.5 156.5t-136.5 431.5q0 276 136.5 432t377.5 156zM721 1552h203 v-202h-203v202zM330 1552h203v-202h-203v202zM328 1841h598v-148h-598v148z" />
<glyph unicode="&#x22c;" horiz-adv-x="1612" d="M807 1356q-220 0 -349.5 -164t-129.5 -447q0 -282 129.5 -446t349.5 -164t348.5 164t128.5 446q0 283 -128.5 447t-348.5 164zM807 1520q314 0 502 -210.5t188 -564.5q0 -353 -188 -563.5t-502 -210.5q-315 0 -503.5 210t-188.5 564t188.5 564.5t503.5 210.5zM805 1685 l-57 33q-25 14 -40.5 19.5t-27.5 5.5q-36 0 -56 -25t-20 -70v-6h-125q0 101 51.5 160t137.5 59q36 0 66.5 -8t78.5 -35l57 -30q23 -13 40 -19t32 -6q32 0 52 25.5t20 66.5v6h125q-2 -100 -53.5 -159.5t-135.5 -59.5q-34 0 -63.5 8t-81.5 35zM507 2099h598v-148h-598v148z " />
<glyph unicode="&#x22d;" horiz-adv-x="1253" d="M627 991q-148 0 -234 -115.5t-86 -316.5t85.5 -316.5t234.5 -115.5q147 0 233 116t86 316q0 199 -86 315.5t-233 116.5zM627 1147q240 0 377 -156t137 -432q0 -275 -137 -431.5t-377 -156.5q-241 0 -377.5 156.5t-136.5 431.5q0 276 136.5 432t377.5 156zM625 1355 l-57 33q-25 14 -40.5 19.5t-27.5 5.5q-36 0 -56 -25t-20 -70v-6h-125q0 101 51.5 160t137.5 59q36 0 66.5 -8t78.5 -35l57 -30q23 -13 40 -19t32 -6q32 0 52 25.5t20 66.5v6h125q-2 -100 -53.5 -159.5t-135.5 -59.5q-34 0 -63.5 8t-81.5 35zM327 1769h598v-148h-598v148z " />
<glyph unicode="&#x22e;" horiz-adv-x="1612" d="M705 1872h204v-205h-204v205zM807 1356q-220 0 -349.5 -164t-129.5 -447q0 -282 129.5 -446t349.5 -164t348.5 164t128.5 446q0 283 -128.5 447t-348.5 164zM807 1520q314 0 502 -210.5t188 -564.5q0 -353 -188 -563.5t-502 -210.5q-315 0 -503.5 210t-188.5 564 t188.5 564.5t503.5 210.5z" />
<glyph unicode="&#x22f;" horiz-adv-x="1253" d="M533 1556h184v-233h-184v233zM627 1147zM627 991q-148 0 -234 -115.5t-86 -316.5t85.5 -316.5t234.5 -115.5q147 0 233 116t86 316q0 199 -86 315.5t-233 116.5zM627 1147q240 0 377 -156t137 -432q0 -275 -137 -431.5t-377 -156.5q-241 0 -377.5 156.5t-136.5 431.5 q0 276 136.5 432t377.5 156z" />
<glyph unicode="&#x230;" horiz-adv-x="1612" d="M807 1356q-220 0 -349.5 -164t-129.5 -447q0 -282 129.5 -446t349.5 -164t348.5 164t128.5 446q0 283 -128.5 447t-348.5 164zM807 1520q314 0 502 -210.5t188 -564.5q0 -353 -188 -563.5t-502 -210.5q-315 0 -503.5 210t-188.5 564t188.5 564.5t503.5 210.5zM704 1835 h204v-205h-204v205zM508 2099h598v-148h-598v148z" />
<glyph unicode="&#x231;" horiz-adv-x="1253" d="M533 1556h184v-233h-184v233zM627 1147zM627 991q-148 0 -234 -115.5t-86 -316.5t85.5 -316.5t234.5 -115.5q147 0 233 116t86 316q0 199 -86 315.5t-233 116.5zM627 1147q240 0 377 -156t137 -432q0 -275 -137 -431.5t-377 -156.5q-241 0 -377.5 156.5t-136.5 431.5 q0 276 136.5 432t377.5 156zM328 1841h598v-148h-598v148z" />
<glyph unicode="&#x232;" horiz-adv-x="1251" d="M327 1841h598v-148h-598v148zM-4 1493h217l414 -614l411 614h217l-528 -782v-711h-203v711z" />
<glyph unicode="&#x233;" horiz-adv-x="1212" d="M307 1525h598v-148h-598v148zM659 -104q-78 -200 -152 -261t-198 -61h-147v154h108q76 0 118 36t93 170l33 84l-453 1102h195l350 -876l350 876h195z" />
<glyph unicode="&#x234;" horiz-adv-x="972" d="M462 130q17 -5 54 -5q160 0 160 175q0 45 -52 46q-52 0 -162 -216zM370 314q110 184 246 184q244 0 244 -206q0 -321 -342 -321q-73 0 -126 15q-34 -72 -58 -130h-196q29 69 96 216q-49 60 -48 150v1328h184v-1236z" />
<glyph unicode="&#x235;" horiz-adv-x="1726" d="M1216 130q17 -5 54 -5q160 0 160 175q0 45 -52 46q-52 0 -162 -216zM1124 314q110 184 246 184q244 0 244 -206q0 -321 -342 -321q-73 0 -126 15q-34 -72 -58 -130h-196q29 69 96 216q-49 60 -48 150v448q0 159 -62 238t-186 79q-149 0 -235 -95t-86 -259v-633h-185v1120 h185v-174q66 101 155 151q90 50 207 50q193 0 292 -119q99 -120 99 -352v-362z" />
<glyph unicode="&#x236;" horiz-adv-x="977" d="M467 130q17 -5 54 -5q160 0 160 175q0 45 -52 46q-52 0 -162 -216zM375 314q110 184 246 184q244 0 244 -206q0 -321 -342 -321q-73 0 -127 15q-33 -72 -57 -130h-196q29 69 96 216q-49 60 -49 150v755h-135v143h135v318h185v-318h379v-143h-379v-663z" />
<glyph unicode="&#x237;" horiz-adv-x="569" d="M193 1120h184v-1140q0 -214 -81.5 -310t-262.5 -96h-70v156h49q105 0 143 48.5t38 201.5v1140z" />
<glyph unicode="&#x238;" horiz-adv-x="2044" d="M303 559q0 -203 83 -319q84 -115 230 -115t230 115.5t84 318.5t-84 318.5t-230 115.5t-230 -115q-83 -116 -83 -319zM571 1147q245 0 359 -197v606h185v-606q114 197 358 197q204 0 331.5 -162t127.5 -426t-127.5 -426t-331.5 -162q-244 0 -358 197v-168h-185v168 q-114 -197 -359 -197q-203 0 -331 162q-127 162 -127 426t127 426q128 162 331 162zM1741 559q0 203 -83 319q-84 115 -230 115t-230 -115q-83 -116 -83 -319t83 -319q84 -115 230 -115t230 115q83 116 83 319z" />
<glyph unicode="&#x239;" horiz-adv-x="2044" d="M1741 559q0 203 -83 319q-84 115 -230 115t-230 -115q-83 -116 -83 -319t83 -319q84 -115 230 -115t230 115q83 116 83 319zM1473 -29q-244 0 -358 197v-594h-185v594q-114 -197 -359 -197q-203 0 -331 162q-127 162 -127 426t127 426q128 162 331 162q245 0 359 -197 v170h185v-170q114 197 358 197q204 0 331.5 -162t127.5 -426t-127.5 -426t-331.5 -162zM303 559q0 -203 83 -319q84 -115 230 -115t230 115.5t84 318.5t-84 318.5t-230 115.5t-230 -115q-83 -116 -83 -319z" />
<glyph unicode="&#x23a;" horiz-adv-x="1401" d="M586 1493h229l134 -351l353 417l102 -89l-400 -473l380 -997h-210l-136 383h-554l-205 -241l-50 -142h-70l-59 -70l-82 70h-2l1 1l-20 17l47 56zM700 1294l-274 -743h22l367 433zM626 551h349l-106 287z" />
<glyph unicode="&#x23b;" horiz-adv-x="1430" d="M114 -70l-102 88l220 261q-117 187 -117 466q0 360 195 567q195 208 534 208q134 0 252 -36q61 -18 119 -45l101 120l102 -89l-99 -118v-187q-46 43 -95 76l-780 -922q9 -13 20 -25q136 -157 392 -157q130 0 246 47q115 47 217 142v-211q-106 -72 -225 -108 q-118 -36 -250 -36q-332 0 -526 199zM375 447l728 860h-1q-116 47 -246 47q-256 0 -392 -156q-136 -157 -136 -453q0 -173 47 -298z" />
<glyph unicode="&#x23c;" horiz-adv-x="1126" d="M105 -94l-96 78l189 230q-85 141 -85 345q0 274 151 431q150 157 412 157q85 0 166 -17q46 -10 91 -26l89 108l95 -79l-118 -143v-85q-25 14 -49 25l-557 -674q7 -8 13 -16q99 -113 278 -113q80 0 158 21q79 22 157 65v-170q-77 -36 -159 -54q-83 -18 -176 -18 q-240 0 -387 144zM332 376l494 598q-71 17 -142 17q-179 0 -278 -113q-99 -114 -99 -319q0 -103 25 -183z" />
<glyph unicode="&#x23d;" horiz-adv-x="1141" d="M201 1493h202v-649h191v-144h-191v-530h727v-170h-929v700h-191v144h191v649z" />
<glyph unicode="&#x23e;" horiz-adv-x="1251" d="M1257 1385v-62h-52l-478 -564v-759h-203v519l-499 -589l-103 88l602 711v594h-530v170h1177l56 66l102 -89zM727 969l300 354h-300v-354z" />
<glyph unicode="&#x23f;" horiz-adv-x="1067" d="M778 295q0 75 -50 115q-51 40 -222 77l-64 15q-171 36 -247 110q-76 75 -76 205q0 158 112 244t318 86q102 0 192 -15t166 -45v-174q-78 40 -162 60t-174 20q-137 0 -205 -42q-69 -42 -69 -126q0 -64 49 -101q49 -36 197 -69l63 -14q198 -44 278 -119q83 -76 83 -213 q0 -156 -123 -247q-87 -64 -219 -83l159 -159l147 -126q42 -36 118 -36v-154h-39q-84 0 -198 61q-71 38 -160 129l-237 243q-30 30 -66 46q-16 3 -33 5q-97 18 -205 53v190q102 -53 201 -79q99 -27 196 -27q130 0 200 45q70 44 70 125z" />
<glyph unicode="&#x240;" horiz-adv-x="1075" d="M113 1120h874v-168l-690 -803q92 -16 141 -65l264 -264l147 -126q42 -36 118 -36h108v-154h-147q-84 0 -198 61q-71 38 -160 129l-237 243q-61 63 -151 63h-94v156v12l692 805h-667v147z" />
<glyph unicode="&#x241;" horiz-adv-x="1235" d="M657 602h-39v-602h-202v768h241q141 0 218 72.5t77 207.5q0 136 -77 207.5t-218 71.5h-254q-69 0 -156.5 -21t-166.5 -65v182q152 70 323 70h254q244 0 376 -110t132 -335q0 -215 -132.5 -330.5t-375.5 -115.5z" />
<glyph unicode="&#x242;" horiz-adv-x="981" d="M303 422h100q141 0 218 72.5t77 207.5q0 141 -76 206q-85 72 -219 72q-73 0 -159 -21t-164 -64v182q152 70 323 70q251 0 376 -110q132 -116 132 -335q0 -213 -106 -327.5t-300 -114.5v-260h-202v422z" />
<glyph unicode="&#x243;" horiz-adv-x="1405" d="M403 713v-201h347v-144h-347v-202h324q163 0 241.5 67.5t78.5 206.5q0 140 -78.5 206.5t-241.5 66.5h-324zM403 1327v-450h299q148 0 220.5 55.5t72.5 169.5q0 113 -72.5 169t-220.5 56h-299zM201 1493h516q231 0 356 -96t125 -273q0 -137 -64 -218t-188 -101 q149 -32 231.5 -133.5t82.5 -253.5q0 -200 -136 -309t-387 -109h-536v368h-191v144h191v981z" />
<glyph unicode="&#x244;" horiz-adv-x="1499" d="M178 1493h203v-618h737v618h203v-618h165v-164h-165v-150q0 -292 -144.5 -441t-426.5 -149q-283 0 -427.5 149t-144.5 441v150h-166v164h166v618zM1118 711h-737v-125q0 -240 87 -345.5t282 -105.5q194 0 281 105.5t87 345.5v125z" />
<glyph unicode="&#x245;" horiz-adv-x="1401" d="M229 0h-213l570 1493h229l569 -1493h-210l-474 1294z" />
<glyph unicode="&#x246;" horiz-adv-x="1294" d="M952 1683h170l-65 -190h88v-170h-146l-151 -442h266v-170h-324l-185 -541h558v-170h-616l-65 -190h-170l65 190h-176v1493h686zM435 170l185 541h-217v-541h32zM678 881l151 442h-426v-442h275z" />
<glyph unicode="&#x247;" horiz-adv-x="1260" d="M967 660q-2 151 -85 241q-14 16 -30 29l-111 -270h226zM1151 606v-90h-469l-148 -361q74 -28 171 -28q106 0 205.5 26t197.5 78v-174q-99 -42 -203 -64t-211 -22q-123 0 -222 33l-80 -194h-170l109 265q-33 23 -61 52q-157 156 -157 422q0 275 148.5 436.5t400.5 161.5 q56 0 105 -9l71 172h170l-92 -224q57 -34 104 -84q131 -146 131 -396zM571 659l135 330q-20 2 -42 2q-154 0 -246.5 -87t-106.5 -245h260zM401 246l111 270h-207q11 -172 96 -270z" />
<glyph unicode="&#x248;" horiz-adv-x="604" d="M594 631h-191v-527q0 -270 -102.5 -392t-329.5 -122h-77v170h63q134 0 189 75t55 269v527h-191v166h191v696h202v-696h191v-166z" />
<glyph unicode="&#x249;" horiz-adv-x="569" d="M193 1120h184v-504h163v-164h-163v-472q0 -214 -81.5 -310t-262.5 -96h-70v156h49q105 0 143 48.5t38 201.5v472h-181v164h181v504zM193 1556h184v-233h-184v233z" />
<glyph unicode="&#x24a;" horiz-adv-x="1600" d="M1203 1261v232h196v-1389q0 -194 55 -269t189 -75h69v-170h-77q-227 0 -329.5 122t-102.5 392v127q-77 -132 -195 -196t-283 -64q-270 0 -440 213.5t-170 561.5t170 561.5t440 213.5q165 0 283 -64t195 -196zM325 745q0 -285 117 -447.5t321 -162.5q205 0 322.5 162.5 t117.5 447.5t-117.5 447.5t-322.5 162.5q-204 0 -321 -162.5t-117 -447.5z" />
<glyph unicode="&#x24b;" horiz-adv-x="1300" d="M1344 -426h-70q-181 0 -262.5 96t-81.5 310v188q-58 -100 -146.5 -148.5t-212.5 -48.5q-203 0 -330.5 162t-127.5 426t127.5 426t330.5 162q124 0 212.5 -48.5t146.5 -148.5v170h184v-1140q0 -153 38 -201.5t143 -48.5h49v-156zM303 559q0 -203 83.5 -318.5t229.5 -115.5 t230 115.5t84 318.5t-84 318.5t-230 115.5t-229.5 -115.5t-83.5 -318.5z" />
<glyph unicode="&#x24c;" horiz-adv-x="1423" d="M909 700q65 -22 126.5 -94t123.5 -198l205 -408h-217l-191 383q-74 150 -143.5 199t-189.5 49h-220v-631h-202v631h-191v166h191v696h456q256 0 382 -107t126 -323q0 -141 -65.5 -234t-190.5 -129zM403 1327v-530h254q146 0 220.5 67.5t74.5 198.5t-74.5 197.5 t-220.5 66.5h-254z" />
<glyph unicode="&#x24d;" horiz-adv-x="842" d="M542 616v-164h-171v-452h-185v452h-172v164h172v504h185v-174q58 102 151 151.5t226 49.5q19 0 42 -2.5t51 -7.5l1 -189q-31 18 -67.5 26.5t-80.5 8.5q-156 0 -239.5 -103t-83.5 -264h171z" />
<glyph unicode="&#x24e;" horiz-adv-x="1251" d="M-4 1493h217l151 -224h524l150 224h217l-151 -224h156v-164h-267l-266 -394v-711h-203v711l-266 394h-268v164h157zM778 1105h-303l152 -226z" />
<glyph unicode="&#x24f;" horiz-adv-x="1212" d="M659 -104q-78 -200 -152 -261t-198 -61h-147v154h108q76 0 118 36t93 170l33 84l-205 498h-298v143h240l-190 461h195l184 -461h332l184 461h195l-185 -461h239v-143h-297zM715 516h-218l109 -272z" />
<glyph unicode="&#x2b0;" horiz-adv-x="828" d="M708 1047v-379h-116v375q0 89 -39 133.5t-117 44.5q-94 0 -148 -53.5t-54 -145.5v-354h-117v871h117v-341q41 56 97.5 84t130.5 28q121 0 183.5 -67t62.5 -196z" />
<glyph unicode="&#x2b1;" horiz-adv-x="817" d="M708 1047v-379h-116v375q0 89 -39 133.5t-117 44.5q-94 0 -148 -53.5t-54 -145.5v-354h-117v644q0 120 51.5 173.5t165.5 53.5h160v-87h-146q-66 0 -90 -27t-24 -113v-114q41 56 97.5 84t130.5 28q121 0 183.5 -67t62.5 -196z" />
<glyph unicode="&#x2b2;" horiz-adv-x="358" d="M122 1295h116v-638q0 -120 -52 -174q-51 -54 -165 -54h-44v88h31q66 0 90 27t24 113v638zM122 1539h116v-130h-116v130z" />
<glyph unicode="&#x2b3;" horiz-adv-x="530" d="M530 1199q-19 10 -42 14.5t-51 4.5q-98 0 -150.5 -56.5t-52.5 -163.5v-330h-117v627h117v-97q36 57 94.5 84.5t142.5 27.5q12 0 26.5 -1t32.5 -4v-106z" />
<glyph unicode="&#x2b4;" horiz-adv-x="605" d="M72 764q19 -10 42 -14.5t51 -4.5q98 0 150.5 56.5t52.5 163.5v330h116v-627h-116v97q-36 -57 -94.5 -84.5t-142.5 -27.5q-12 0 -26.5 1t-32.5 4v106z" />
<glyph unicode="&#x2b5;" horiz-adv-x="606" d="M72 764q19 -10 42 -14.5t51 -4.5q98 0 150.5 56.5t52.5 163.5v330h116v-627v-11q0 -86 24 -113t90 -27h31v-88h-44q-114 0 -165.5 54t-51.5 174v11v97q-36 -57 -94.5 -84.5t-142.5 -27.5q-12 0 -26.5 1t-32.5 4v106z" />
<glyph unicode="&#x2b6;" horiz-adv-x="776" d="M411 1001q67 -15 102 -54t35 -98q0 -91 -67 -136q-68 -45 -205 -45h-244v627h116v-265h107q61 0 98 21q37 20 77 83l102 161h123l-110 -171q-33 -53 -66 -83q-34 -30 -68 -40zM148 755h125q75 0 114 23q41 24 41 71q0 46 -41 70q-39 25 -114 25h-125v-189z" />
<glyph unicode="&#x2b7;" horiz-adv-x="1055" d="M54 1295h116l145 -489l144 489h137l145 -489l144 489h116l-185 -627h-136l-152 514l-153 -514h-136z" />
<glyph unicode="&#x2b8;" horiz-adv-x="763" d="M415 610q-49 -112 -96 -146q-46 -35 -124 -35h-93v87h68q48 0 74 20q27 20 59 95l21 47l-286 617h123l221 -490l220 490h123z" />
<glyph unicode="&#x2b9;" horiz-adv-x="570" d="M160 1140l65 498h190l-110 -498h-145z" />
<glyph unicode="&#x2ba;" horiz-adv-x="942" d="M160 1140l65 498h190l-110 -498h-145zM532 1140l65 498h190l-110 -498h-145z" />
<glyph unicode="&#x2bb;" horiz-adv-x="651" d="M385 1001h-211v173l164 319h129l-82 -319v-173z" />
<glyph unicode="&#x2bc;" horiz-adv-x="651" d="M260 1493h211v-152l-164 -319h-129l82 319v152z" />
<glyph unicode="&#x2bd;" horiz-adv-x="651" d="M407 1754v-172l82 -320h-129l-164 320v172h211z" />
<glyph unicode="&#x2be;" horiz-adv-x="629" d="M117 1007v123q64 0 108 44t44 108q0 63 -44 107t-108 44v123q115 0 195 -80q79 -79 79 -194t-79 -195q-80 -80 -195 -80z" />
<glyph unicode="&#x2bf;" horiz-adv-x="629" d="M391 1007q-115 0 -195 80q-79 80 -79 195t79 194q80 80 195 80v-123q-64 0 -108 -44t-44 -107q0 -64 44 -108t108 -44v-123z" />
<glyph unicode="&#x2c0;" horiz-adv-x="757" d="M276 1115h39q121 0 176 64q36 42 36 97q-1 75 -36 111q-63 64 -176 64q-50 0 -100 -12q-49 -12 -98 -36v96q48 20 99 29q51 10 104 10q174 0 261 -88q68 -70 68 -174q0 -95 -68 -159q-70 -67 -177 -84v-365h-128v447z" />
<glyph unicode="&#x2c1;" horiz-adv-x="757" d="M490 1115v-447h-127v365q-107 17 -178 84q-68 64 -68 159q0 104 69 174q87 88 260 88q53 0 104 -10q51 -9 99 -29v-96q-49 24 -99 36q-49 12 -99 12q-113 0 -175 -64q-36 -36 -37 -111q0 -55 37 -97q54 -64 175 -64h39z" />
<glyph unicode="&#x2c2;" horiz-adv-x="1024" d="M267 1467l490 245v-139l-359 -180l359 -180v-139l-490 245v148z" />
<glyph unicode="&#x2c3;" horiz-adv-x="1024" d="M757 1319l-490 -245v139l359 180l-359 180v139l490 -245v-148z" />
<glyph unicode="&#x2c4;" horiz-adv-x="1024" d="M438 1638h148l245 -490h-139l-180 359l-180 -359h-139z" />
<glyph unicode="&#x2c5;" horiz-adv-x="1024" d="M438 1148l-245 490h139l180 -359l180 359h139l-245 -490h-148z" />
<glyph unicode="&#x2c6;" horiz-adv-x="1024" d="M438 1638h148l245 -376h-139l-180 245l-180 -245h-139z" />
<glyph unicode="&#x2c7;" horiz-adv-x="1024" d="M438 1262l-245 376h139l180 -245l180 245h139l-245 -376h-148z" />
<glyph unicode="&#x2c8;" horiz-adv-x="563" d="M350 1554v-555h-136v555h136z" />
<glyph unicode="&#x2c9;" horiz-adv-x="1024" d="M213 1526h598v-148h-598v148z" />
<glyph unicode="&#x2ca;" horiz-adv-x="1024" d="M651 1638h199l-326 -376h-153z" />
<glyph unicode="&#x2cb;" horiz-adv-x="1024" d="M367 1638l282 -374h-153l-326 374h197z" />
<glyph unicode="&#x2cc;" horiz-adv-x="563" d="M350 252v-555h-136v555h136z" />
<glyph unicode="&#x2cd;" horiz-adv-x="1024" d="M213 -172h598v-148h-598v148z" />
<glyph unicode="&#x2ce;" horiz-adv-x="1024" d="M367 -110l282 -374h-153l-326 374h197z" />
<glyph unicode="&#x2cf;" horiz-adv-x="1024" d="M651 -108h199l-326 -376h-153z" />
<glyph unicode="&#x2d0;" horiz-adv-x="690" d="M289 729l-178 330h357zM289 330l179 -330h-357z" />
<glyph unicode="&#x2d1;" horiz-adv-x="690" d="M289 729l-178 330h357z" />
<glyph unicode="&#x2d2;" horiz-adv-x="629" d="M117 510v123q64 0 108 44t44 108q0 63 -44 107t-108 44v123q115 0 195 -80q79 -79 79 -194t-79 -195q-80 -80 -195 -80z" />
<glyph unicode="&#x2d3;" horiz-adv-x="629" d="M391 510q-115 0 -195 80q-79 80 -79 195t79 194q80 80 195 80v-123q-64 0 -108 -44t-44 -107q0 -64 44 -108t108 -44v-123z" />
<glyph unicode="&#x2d4;" horiz-adv-x="1024" d="M737 618v-150h-450v150h150v300h150v-300h150z" />
<glyph unicode="&#x2d5;" horiz-adv-x="1024" d="M287 768v150h450v-150h-150v-300h-150v300h-150z" />
<glyph unicode="&#x2d6;" horiz-adv-x="798" d="M324 629v224h150v-224h224v-150h-224v-224h-150v224h-224v150h224z" />
<glyph unicode="&#x2d7;" horiz-adv-x="650" d="M550 479h-450v150h450v-150z" />
<glyph unicode="&#x2d8;" horiz-adv-x="1024" d="M199 1608h118q11 -75 59.5 -112.5t135.5 -37.5q86 0 134 37t61 113h118q-10 -143 -89 -215t-224 -72t-224 72t-89 215z" />
<glyph unicode="&#x2d9;" horiz-adv-x="1024" d="M410 1552h204v-204h-204v204z" />
<glyph unicode="&#x2da;" horiz-adv-x="1024" d="M664 1524q0 63 -44 107t-108 44q-65 0 -108.5 -43.5t-43.5 -107.5q0 -65 43.5 -108.5t108.5 -43.5q64 0 108 44t44 108zM786 1524q0 -115 -79.5 -195t-194.5 -80t-194.5 80t-79.5 195t79.5 194.5t194.5 79.5t194.5 -79.5t79.5 -194.5z" />
<glyph unicode="&#x2db;" horiz-adv-x="1024" d="M440 0h119q-45 -61 -66.5 -105t-21.5 -75q0 -46 27.5 -69t81.5 -23q32 0 63 7.5t62 22.5v-133q-38 -10 -72 -15t-64 -5q-122 0 -179.5 43.5t-57.5 136.5q0 48 26.5 100.5t81.5 114.5z" />
<glyph unicode="&#x2dc;" horiz-adv-x="1024" d="M508 1370l-57 55q-22 20 -38.5 29.5t-29.5 9.5q-38 0 -56 -36.5t-20 -118.5h-125q2 135 53 208.5t142 73.5q38 0 70 -14t69 -47l57 -55q22 -20 38.5 -29.5t29.5 -9.5q38 0 56 36.5t20 118.5h125q-2 -135 -53 -208.5t-142 -73.5q-38 0 -70 14t-69 47z" />
<glyph unicode="&#x2dd;" horiz-adv-x="1024" d="M764 1638h178l-248 -376h-135zM430 1638h170l-223 -376h-137z" />
<glyph unicode="&#x2de;" horiz-adv-x="646" d="M-1 868l278 164h184v-148q0 -153 38 -202q38 -48 143 -48h43v-156h-64q-175 0 -262 96q-82 90 -82 290l-277 -162z" />
<glyph unicode="&#x2df;" horiz-adv-x="1024" d="M604 1262l-92 97l-93 -97h-180l181 187l-181 189h180l93 -96l92 96h180l-182 -189l182 -187h-180z" />
<glyph unicode="&#x2e0;" horiz-adv-x="872" d="M517 988q178 -249 178 -429q0 -132 -242 -132q-267 0 -267 132q0 191 181 433l-250 303h137l191 -224l183 224h137zM441 921q-137 -174 -137 -326q0 -77 136 -77q129 0 129 77q0 137 -128 326z" />
<glyph unicode="&#x2e1;" horiz-adv-x="340" d="M122 1539h116v-871h-116v871z" />
<glyph unicode="&#x2e2;" horiz-adv-x="764" d="M618 1293v-97q-49 22 -102 33q-52 11 -109 11q-87 0 -130 -23q-43 -24 -43 -71q0 -36 31 -56q31 -21 124 -39l40 -8q125 -24 175 -66q52 -43 52 -120q0 -87 -78 -138q-77 -51 -213 -51q-57 0 -119 10q-61 10 -129 29v107q64 -30 127 -45q62 -15 123 -15q82 0 126 25 t44 70q0 42 -32 65q-28 20 -139 43l-40 8q-108 21 -156 62q-48 42 -48 115q0 88 71 136q70 49 200 49q64 0 121 -9q57 -8 104 -25z" />
<glyph unicode="&#x2e3;" horiz-adv-x="909" d="M788 1295l-255 -305l268 -322h-137l-205 246l-205 -246h-137l274 328l-251 299h137l187 -223l187 223h137z" />
<glyph unicode="&#x2e4;" horiz-adv-x="757" d="M490 1115v-447h-127v365q-107 17 -178 84q-68 64 -68 159q0 104 69 174q87 88 260 88q53 0 104 -10q51 -9 99 -29v-96q-49 24 -99 36q-49 12 -99 12q-113 0 -175 -64q-36 -36 -37 -111q0 -55 37 -97q54 -64 175 -64h39z" />
<glyph unicode="&#x2e5;" horiz-adv-x="1010" d="M661 0v1232h-447v136h583v-1368h-136z" />
<glyph unicode="&#x2e6;" horiz-adv-x="1010" d="M661 0v924h-447v136h447v308h136v-1368h-136z" />
<glyph unicode="&#x2e7;" horiz-adv-x="1010" d="M661 0v616h-447v136h447v616h136v-1368h-136z" />
<glyph unicode="&#x2e8;" horiz-adv-x="1010" d="M661 0v308h-447v136h447v924h136v-1368h-136z" />
<glyph unicode="&#x2e9;" horiz-adv-x="1010" d="M661 136v1232h136v-1368h-583v136h447z" />
<glyph unicode="&#x2ec;" horiz-adv-x="1024" d="M438 -532l-245 490h139l180 -359l180 359h139l-245 -490h-148z" />
<glyph unicode="&#x2ed;" horiz-adv-x="1024" d="M213 1654h598v-148h-598v148zM213 1398h598v-148h-598v148z" />
<glyph unicode="&#x2ee;" horiz-adv-x="1061" d="M256 1493h211v-172l-164 -320h-129l82 320v172zM666 1493h211v-172l-164 -320h-129l82 320v172z" />
<glyph unicode="&#x2f3;" horiz-adv-x="1024" d="M664 -217q0 63 -44 107t-108 44q-65 0 -108.5 -43.5t-43.5 -107.5q0 -65 43.5 -108.5t108.5 -43.5q64 0 108 44t44 108zM786 -217q0 -115 -79.5 -195t-194.5 -80t-194.5 80t-79.5 195t79.5 194.5t194.5 79.5t194.5 -79.5t79.5 -194.5z" />
<glyph unicode="&#x2f7;" horiz-adv-x="1024" d="M508 -333l-57 55q-22 20 -39 30q-16 9 -29 9q-38 0 -56 -37q-18 -36 -20 -118h-125q2 135 53 208q51 74 142 74q38 0 70 -14t69 -47l57 -55q22 -20 39 -30q16 -9 29 -9q38 0 56 37q18 36 20 118h125q-2 -135 -53 -208q-51 -74 -142 -74q-38 0 -70 14t-69 47z" />
<glyph unicode="&#x300;" d="M-659 1638l282 -374h-153l-326 374h197zM-512 1147z" />
<glyph unicode="&#x301;" d="M-375 1638h199l-326 -376h-153zM-512 1147z" />
<glyph unicode="&#x302;" d="M-586 1638h148l245 -376h-139l-180 245l-180 -245h-139zM-512 1147z" />
<glyph unicode="&#x303;" d="M-518 1370l-57 55q-22 20 -38.5 29.5t-29.5 9.5q-38 0 -56 -36.5t-20 -118.5h-125q2 135 53 208.5t142 73.5q38 0 70 -14t69 -47l57 -55q22 -20 38.5 -29.5t29.5 -9.5q38 0 56 36.5t20 118.5h125q-2 -135 -53 -208.5t-142 -73.5q-38 0 -70 14t-69 47z" />
<glyph unicode="&#x304;" d="M-807 1526h598v-148h-598v148z" />
<glyph unicode="&#x305;" d="M20 1547v-143h-1064v143h1064z" />
<glyph unicode="&#x306;" d="M-833 1608h118q11 -75 59.5 -112.5t135.5 -37.5q86 0 134 37t61 113h118q-10 -143 -89 -215t-224 -72t-224 72t-89 215z" />
<glyph unicode="&#x307;" d="M-606 1556h184v-233h-184v233zM-512 1147z" />
<glyph unicode="&#x308;" d="M-418 1552h203v-202h-203v202zM-809 1552h203v-202h-203v202zM-512 1147z" />
<glyph unicode="&#x309;" d="M-713 1608q112 51 217 51q104 0 167.5 -42.5t63.5 -109.5q0 -61 -88 -126l-44 -32q-35 -26 -39 -35q-7 -16 -7 -48h-119v12q0 40 15 67t66 64l45 34q46 34 46 74q0 21 -31 39t-102 18q-90 0 -190 -52v86z" />
<glyph unicode="&#x30a;" d="M-362 1524q0 63 -44 107t-108 44q-65 0 -108.5 -43.5t-43.5 -107.5q0 -65 43.5 -108.5t108.5 -43.5q64 0 108 44t44 108zM-240 1524q0 -115 -79.5 -195t-194.5 -80t-194.5 80t-79.5 195t79.5 194.5t194.5 79.5t194.5 -79.5t79.5 -194.5z" />
<glyph unicode="&#x30b;" d="M-256 1638h178l-248 -376h-135zM-590 1638h170l-223 -376h-137z" />
<glyph unicode="&#x30c;" d="M-582 1262l-245 376h139l180 -245l180 245h139l-245 -376h-148zM-512 1147z" />
<glyph unicode="&#x30d;" d="M-444 1704v-444h-136v444h136z" />
<glyph unicode="&#x30e;" d="M-648 1704v-444h-136v444h136zM-240 1704v-444h-136v444h136z" />
<glyph unicode="&#x30f;" d="M-753 1638l205 -376h-135l-248 376h178zM-419 1638l190 -376h-137l-223 376h170z" />
<glyph unicode="&#x310;" d="M-606 1878h184v-233h-184v233zM-512 1469zM-833 1608h118q11 -75 59.5 -112.5t135.5 -37.5q86 0 134 37t61 113h118q-10 -143 -89 -215t-224 -72t-224 72t-89 215z" />
<glyph unicode="&#x311;" d="M-207 1321h-118q-11 75 -59.5 112.5t-135.5 37.5q-86 0 -134 -37t-61 -113h-118q10 143 89 215t224 72t224 -72t89 -215z" />
<glyph unicode="&#x312;" d="M-270 1001h-211l164 319h129z" />
<glyph unicode="&#x313;" d="M-382 1475q0 -257 -242 -257v123q112 -3 112 134h-112v254h242v-254z" />
<glyph unicode="&#x314;" d="M-624 1475v254h241v-254h-111q0 -137 112 -134v-123q-242 0 -242 257z" />
<glyph unicode="&#x315;" d="M-64 1554h199l-117 -376h-153z" />
<glyph unicode="&#x316;" d="M-659 -171l282 -374h-153l-326 374h197z" />
<glyph unicode="&#x317;" d="M-375 -171h199l-326 -376h-153z" />
<glyph unicode="&#x318;" d="M-572 -331h-160v120h160v161h120v-442h-120v161z" />
<glyph unicode="&#x319;" d="M-572 -50h120v-161h160v-120h-160v-161h-120v442z" />
<glyph unicode="&#x31a;" d="M-73 1768h-354v136h490v-490h-136v354z" />
<glyph unicode="&#x31b;" d="M-272 983v119q61 -45 105 -66.5t75 -21.5q46 0 69 27.5t23 81.5q0 32 -7.5 63t-22.5 62h133q10 -38 15 -72t5 -64q0 -122 -43.5 -179.5t-136.5 -57.5q-48 0 -100.5 26.5t-114.5 81.5z" />
<glyph unicode="&#x31c;" d="M-426 -494q-90 0 -152 62.5t-62 152.5q0 89 62 151t152 62v-120q-40 0 -66.5 -26.5t-26.5 -65.5q0 -40 26.5 -66.5t66.5 -26.5v-123z" />
<glyph unicode="&#x31d;" d="M-444 -356h177v-136h-490v136h177v177h136v-177z" />
<glyph unicode="&#x31e;" d="M-580 -315h-177v136h490v-136h-177v-177h-136v177z" />
<glyph unicode="&#x31f;" d="M-572 -331h-160v120h160v161h120v-161h160v-120h-160v-161h-120v161z" />
<glyph unicode="&#x320;" d="M-757 -376v136h490v-136h-490z" />
<glyph unicode="&#x321;" d="M-48 128v-148q0 -214 -82 -310q-81 -96 -262 -96h-254v156h233q105 0 143 48q38 49 38 202v148h184z" />
<glyph unicode="&#x322;" d="M-649 128h184v-148q0 -153 38 -202q38 -48 143 -48h233v-156h-254q-181 0 -262 96q-82 96 -82 310v148z" />
<glyph unicode="&#x323;" d="M-606 -141h184v-234h-184v234z" />
<glyph unicode="&#x324;" d="M-420 -173h203v-202h-203v202zM-811 -173h203v-202h-203v202z" />
<glyph unicode="&#x325;" d="M-421 -278q0 38 -27 65t-66 27q-40 0 -66.5 -26.5t-26.5 -65.5q0 -40 26.5 -66.5t66.5 -26.5q39 0 66 27t27 66zM-300 -279q0 -90 -62 -152.5t-152 -62.5t-152 62.5t-62 152.5q0 89 62 151t152 62t152 -62t62 -151z" />
<glyph unicode="&#x326;" d="M-580 -172h211l-164 -320h-129z" />
<glyph unicode="&#x327;" d="M-428 0q55 -62 82 -114.5t27 -100.5q0 -89 -60 -134.5t-178 -45.5q-46 0 -89.5 6t-86.5 18v131q34 -17 71 -24.5t84 -7.5q59 0 89 24t30 70q0 30 -21.5 73.5t-66.5 104.5h119z" />
<glyph unicode="&#x328;" d="M-584 0h119q-45 -61 -66.5 -105t-21.5 -75q0 -46 27.5 -69t81.5 -23q32 0 63 7.5t62 22.5v-133q-38 -10 -72 -15t-64 -5q-122 0 -179.5 43.5t-57.5 136.5q0 48 26.5 100.5t81.5 114.5z" />
<glyph unicode="&#x329;" d="M-444 -96v-396h-136v396h136z" />
<glyph unicode="&#x32a;" d="M-233 -102v-330h-137v194h-277v-194h-137v330h551z" />
<glyph unicode="&#x32b;" d="M-514 -373q-60 -82 -176 -82q-218 0 -235 282v5h117q14 -150 118 -150q101 0 116 150h118q12 -149 117 -150q102 0 117 150h118q-15 -286 -235 -287q-116 0 -175 82z" />
<glyph unicode="&#x32c;" d="M-582 -492l-245 376h139l180 -245l180 245h139l-245 -376h-148z" />
<glyph unicode="&#x32d;" d="M-588 -116h148l245 -376h-139l-180 245l-180 -245h-139z" />
<glyph unicode="&#x32e;" d="M-833 -168h118q11 -75 59.5 -112.5t135.5 -37.5q86 0 134 37t61 113h118q-10 -143 -89 -215t-224 -72t-224 72t-89 215z" />
<glyph unicode="&#x32f;" d="M-207 -458h-118q-11 75 -59.5 112.5t-135.5 37.5q-86 0 -134 -37t-61 -113h-118q10 143 89 215t224 72t224 -72t89 -215z" />
<glyph unicode="&#x330;" d="M-518 -394l-57 55q-22 20 -38.5 29.5t-29.5 9.5q-38 0 -56 -36.5t-20 -118.5h-125q2 135 53 208.5t142 73.5q38 0 70 -14t69 -47l57 -55q22 -20 38.5 -29.5t29.5 -9.5q38 0 56 36.5t20 118.5h125q-2 -135 -53 -208.5t-142 -73.5q-38 0 -70 14t-69 47z" />
<glyph unicode="&#x331;" d="M-807 -172h598v-148h-598v148z" />
<glyph unicode="&#x332;" d="M20 -340v-143h-1064v143h1064z" />
<glyph unicode="&#x333;" d="M20 -340v-143h-1064v143h1064zM20 -18v-143h-1064v143h1064z" />
<glyph unicode="&#x334;" d="M-83 780v-174q-75 -59 -146.5 -86.5t-150.5 -27.5q-90 0 -203 51q-22 10 -33 14q-77 33 -128.5 45t-102.5 12q-79 0 -149.5 -29.5t-143.5 -92.5v174q78 60 151 87t156 27q53 0 103 -11t124 -42q12 -5 33 -15q116 -55 209 -55q70 0 138.5 30.5t142.5 92.5z" />
<glyph unicode="&#x335;" d="M-120 616v-164h-528v164h528z" />
<glyph unicode="&#x336;" d="M-1299 452v164h1298v-164h-1298z" />
<glyph unicode="&#x337;" d="M-1080 -94l-96 78l1013 1228l95 -79z" />
<glyph unicode="&#x338;" d="M-1415 -70l-103 88l1305 1541l102 -89z" />
<glyph unicode="&#x339;" d="M-596 -66q90 0 152 -62.5t62 -152.5q0 -89 -62 -151t-152 -62v120q40 0 66.5 26.5t26.5 65.5q0 40 -26.5 66.5t-66.5 26.5v123z" />
<glyph unicode="&#x33a;" d="M-783 -421v330h137v-194h277v194h137v-330h-551z" />
<glyph unicode="&#x33b;" d="M-285 -42v-450h-450v450h450zM-405 -372v210h-210v-210h210z" />
<glyph unicode="&#x33c;" d="M-514 -250q59 82 175 82q218 0 235 -282v-5h-118q-13 150 -116 150q-102 0 -118 -150h-118q-11 149 -116 150q-102 0 -117 -150h-118q15 286 235 287q116 0 176 -82z" />
<glyph unicode="&#x33d;" d="M-504 1392l-125 -125l-96 96l125 125l-125 125l96 96l125 -125l125 125l96 -96l-125 -125l125 -125l-96 -96z" />
<glyph unicode="&#x33e;" d="M-445 1479q-33 28 -47 52t-14 52q0 80 73.5 120.5t208.5 42.5v-110q-82 -2 -118.5 -15.5t-36.5 -41.5q0 -10 9 -22q12 -15 30 -29l55 -43q33 -28 47 -52t14 -52q0 -80 -73.5 -120.5t-208.5 -42.5v110q82 2 118.5 15.5t36.5 41.5q0 10 -9 22q-12 15 -30 29z" />
<glyph unicode="&#x33f;" d="M20 1547v-143h-1064v143h1064zM20 1225v-143h-1064v143h1064z" />
<glyph unicode="&#x340;" d="M-659 1638l282 -374h-153l-326 374h197z" />
<glyph unicode="&#x341;" d="M-375 1638h199l-326 -376h-153z" />
<glyph unicode="&#x342;" d="M-518 1370l-57 55q-22 20 -38.5 29.5t-29.5 9.5q-38 0 -56 -36.5t-20 -118.5h-125q2 135 53 208.5t142 73.5q38 0 70 -14t69 -47l57 -55q22 -20 38.5 -29.5t29.5 -9.5q38 0 56 36.5t20 118.5h125q-2 -135 -53 -208.5t-142 -73.5q-38 0 -70 14t-69 47z" />
<glyph unicode="&#x343;" d="M-382 1475q0 -257 -242 -257v123q112 -3 112 134h-112v254h242v-254z" />
<glyph unicode="&#x344;" d="M-402 1552h203v-202h-203v202zM-793 1552h203v-202h-203v202zM-357 2002h199l-326 -376h-153z" />
<glyph unicode="&#x345;" d="M-350 -426h-148q-26 0 -52 33q-20 26 -20 72v229h149v-229q0 -14 10 -26q12 -13 26 -13h35v-66z" />
<glyph unicode="&#x346;" d="M-213 1309h-150v150h-298v-150h-150v300h598v-300z" />
<glyph unicode="&#x347;" d="M-287 -462h-450v120h450v-120zM-287 -192h-450v120h450v-120z" />
<glyph unicode="&#x348;" d="M-747 -96h150v-396h-150v396zM-427 -96h150v-396h-150v396z" />
<glyph unicode="&#x349;" d="M-737 -42h450v-450h-150v300h-300v150z" />
<glyph unicode="&#x34a;" d="M-513 1535l66 103h109l-107 -169q11 -9 33 -23q16 -10 29 -10q38 0 56 36q18 37 20 119h125q-2 -135 -53 -209q-51 -73 -142 -73q-38 0 -70 14q-30 13 -63 42l-66 -103h-110l107 168q-13 11 -33 24q-16 10 -29 10q-38 0 -56 -36q-18 -37 -20 -119h-125q2 135 53 209 q51 73 142 73q38 0 70 -14q30 -13 64 -42z" />
<glyph unicode="&#x34b;" d="M-516 1384l-57 33q-25 14 -40.5 19.5t-27.5 5.5q-36 0 -56 -25t-20 -70v-6h-125q0 101 51.5 160t137.5 59q36 0 66.5 -8t78.5 -35l57 -30q23 -13 40 -19t32 -6q32 0 52 25.5t20 66.5v6h125q-2 -100 -53.5 -159.5t-135.5 -59.5q-34 0 -63.5 8t-81.5 35zM-696 1311h150 v-150h-150v150zM-486 1740h150v-150h-150v150z" />
<glyph unicode="&#x34c;" d="M-516 1264l-57 33q-25 14 -40.5 19.5t-27.5 5.5q-36 0 -56 -25t-20 -70v-6h-125q0 101 51.5 160t137.5 59q36 0 66.5 -8t78.5 -35l57 -30q23 -13 40 -19t32 -6q32 0 52 25.5t20 66.5v6h125q-2 -100 -53.5 -159.5t-135.5 -59.5q-34 0 -63.5 8t-81.5 35zM-516 1504l-57 33 q-25 14 -40.5 19.5t-27.5 5.5q-36 0 -56 -25t-20 -70v-6h-125q0 101 51.5 160t137.5 59q36 0 66.5 -8t78.5 -35l57 -30q23 -13 40 -19t32 -6q32 0 52 25.5t20 66.5v6h125q-2 -100 -53.5 -159.5t-135.5 -59.5q-34 0 -63.5 8t-81.5 35z" />
<glyph unicode="&#x34d;" d="M-400 -472l132 155h-487l132 -155h-127l-175 205l175 205h127l-132 -155h487l-132 155h126l175 -205l-175 -205h-126z" />
<glyph unicode="&#x34e;" d="M-462 -492h-100v231l-155 -132v126l205 175l205 -175v-126l-155 132v-231z" />
<glyph unicode="&#x34f;" />
<glyph unicode="&#x351;" d="M-376 1675q-64 -1 -106 -43q-44 -44 -44 -108q0 -65 44 -108q42 -43 106 -44v-123q-114 1 -192 80q-80 80 -80 195t80 195q78 78 192 79v-123z" />
<glyph unicode="&#x352;" d="M-207 1465h-118q-11 75 -59.5 112.5t-135.5 37.5q-86 0 -134 -37t-61 -113h-118q10 143 89 215t224 72t224 -72t89 -215zM-606 1529h184v-233h-184v233zM-512 1120z" />
<glyph unicode="&#x353;" d="M-504 -367l-125 -125l-96 96l125 125l-125 125l96 96l125 -125l125 125l96 -96l-125 -125l125 -125l-96 -96z" />
<glyph unicode="&#x357;" d="M-648 1675v123q114 -1 192 -79q80 -80 80 -195t-80 -195q-78 -79 -192 -80v123q64 1 106 44q44 43 44 108q0 64 -44 108q-42 42 -106 43z" />
<glyph unicode="&#x358;" d="M-210 1552h204v-204h-204v204z" />
<glyph unicode="&#x35a;" d="M-732.5 -343.5q26.5 -26.5 66 -26.5t66 26.5t27.5 65t-26.5 66t-67 27.5t-66 -26.5t-26.5 -66t26.5 -66zM-512 -129q62 63 152.5 63t152.5 -62t62 -151.5t-62 -152t-153 -62.5t-152 65q-62 -64 -153 -64t-153 62.5t-62 152t62 151.5t153 62t153 -64zM-293 -344 q27 27 27 65.5t-27 65.5t-66.5 27t-66 -26.5t-26.5 -66t26.5 -66t66 -26.5t66.5 27z" />
<glyph unicode="&#x35c;" d="M-1 -331q231 0 457.5 52t455.5 156v-126q-235 -118 -462 -177t-451 -59q-223 0 -449 58.5t-462 177.5v126q230 -105 455 -156.5t456 -51.5z" />
<glyph unicode="&#x35d;" d="M-1 1797q231 0 457.5 52t455.5 156v-126q-235 -118 -462 -177t-451 -59q-223 0 -449 58.5t-462 177.5v126q230 -105 455 -156.5t456 -51.5z" />
<glyph unicode="&#x35e;" d="M-912 1899h1824v-148h-1824v148z" />
<glyph unicode="&#x35f;" d="M-912 -172h1824v-148h-1824v148z" />
<glyph unicode="&#x360;" d="M-4 1610l-144 55q-28 11 -107 29q-44 10 -80 10q-101 0 -154 -36q-70 -48 -75 -119h-162q4 135 117 209q112 73 312 73q91 0 154 -14q57 -13 147 -47l144 -55q28 -11 107 -29q44 -10 80 -10q97 0 154 36q71 44 75 119h162q-4 -135 -117 -209q-112 -73 -312 -73 q-91 0 -154 14q-57 13 -147 47z" />
<glyph unicode="&#x361;" d="M-1 1902q224 0 451 -59t462 -177v-126q-229 104 -455.5 156t-457.5 52t-456 -51.5t-455 -156.5v126q236 119 462 177.5t449 58.5z" />
<glyph unicode="&#x362;" d="M-905 -317v100h1651l-132 155h126l175 -205l-175 -205h-126l132 155h-1651z" />
<glyph unicode="&#x370;" horiz-adv-x="1340" d="M1137 711h-734v-711h-202v1493h202v-612h734v-170z" />
<glyph unicode="&#x371;" horiz-adv-x="1163" d="M976 516h-599v-516h-184v1120h184v-461h599v-143z" />
<glyph unicode="&#x372;" horiz-adv-x="1765" d="M201 1493h1363v-780h-202v610h-378v-1323h-203v1323h-378v-610h-202v780z" />
<glyph unicode="&#x373;" horiz-adv-x="1326" d="M201 1493h924v-780h-184v610h-185v-1323h-185v1323h-185v-610h-185v780z" />
<glyph unicode="&#x374;" horiz-adv-x="570" d="M160 1140l65 498h190l-110 -498h-145z" />
<glyph unicode="&#x375;" horiz-adv-x="570" d="M415 72l-65 -498h-190l110 498h145z" />
<glyph unicode="&#x376;" horiz-adv-x="1532" d="M1331 1493v-1493h-196v1249l-662 -1249h-272v1493h196v-1249l662 1249h272z" />
<glyph unicode="&#x377;" horiz-adv-x="1331" d="M1145 1120v-1120h-183v899l-540 -899h-236v1120h183v-897l539 897h237z" />
<glyph unicode="&#x37a;" horiz-adv-x="1024" d="M658 -426h-148q-26 0 -52 33q-20 26 -20 72v229h149v-229q0 -14 10 -26q12 -13 26 -13h35v-66z" />
<glyph unicode="&#x37b;" horiz-adv-x="1125" d="M127 1075q77 36 159.5 54t175.5 18q253 0 402 -159t149 -429q0 -274 -150.5 -431t-412.5 -157q-85 0 -166 17.5t-157 52.5v172q78 -43 156.5 -64.5t158.5 -21.5q179 0 278 113.5t99 318.5t-99 318.5t-278 113.5q-80 0 -158.5 -21.5t-156.5 -64.5v170z" />
<glyph unicode="&#x37c;" horiz-adv-x="1126" d="M554 714h211v-254h-211v254zM999 1077v-172q-78 43 -156.5 64.5t-158.5 21.5q-179 0 -278 -113.5t-99 -318.5t99 -318.5t278 -113.5q80 0 158.5 21.5t156.5 64.5v-170q-77 -36 -159.5 -54t-175.5 -18q-253 0 -402 159t-149 429q0 274 150.5 431t412.5 157q85 0 166 -17.5 t157 -52.5z" />
<glyph unicode="&#x37d;" horiz-adv-x="1125" d="M361 714h211v-254h-211v254zM127 1075q77 36 159.5 54t175.5 18q253 0 402 -159t149 -429q0 -274 -150.5 -431t-412.5 -157q-85 0 -166 17.5t-157 52.5v172q78 -43 156.5 -64.5t158.5 -21.5q179 0 278 113.5t99 318.5t-99 318.5t-278 113.5q-80 0 -158.5 -21.5 t-156.5 -64.5v170z" />
<glyph unicode="&#x37e;" horiz-adv-x="690" d="M240 1059h211v-254h-211v254zM240 254h211v-172l-164 -320h-129l82 320v172z" />
<glyph unicode="&#x384;" horiz-adv-x="1024" d="M651 1638h199l-326 -376h-153z" />
<glyph unicode="&#x385;" horiz-adv-x="1024" d="M606 1552h203v-202h-203v202zM215 1552h203v-202h-203v202zM651 2002h199l-326 -376h-153z" />
<glyph unicode="&#x386;" horiz-adv-x="1418" d="M357 1638h199l-326 -376h-153zM700 1294l-274 -743h549zM586 1493h229l569 -1493h-210l-136 383h-673l-136 -383h-213z" />
<glyph unicode="&#x387;" horiz-adv-x="651" d="M219 838h211v-254h-211v254z" />
<glyph unicode="&#x388;" horiz-adv-x="1528" d="M255 1638h199l-326 -376h-153zM435 1493h944v-170h-742v-442h711v-170h-711v-541h760v-170h-962v1493z" />
<glyph unicode="&#x389;" horiz-adv-x="1784" d="M267 1638h199l-326 -376h-153zM429 1493h202v-612h734v612h202v-1493h-202v711h-734v-711h-202v1493z" />
<glyph unicode="&#x38a;" horiz-adv-x="836" d="M261 1638h199l-326 -376h-153zM435 1493h202v-1493h-202v1493z" />
<glyph unicode="&#x38c;" horiz-adv-x="1664" d="M266 1638h199l-326 -376h-153zM847 1356q-220 0 -349.5 -164t-129.5 -447q0 -282 129.5 -446t349.5 -164t348.5 164t128.5 446q0 283 -128.5 447t-348.5 164zM847 1520q314 0 502 -210.5t188 -564.5q0 -353 -188 -563.5t-502 -210.5q-315 0 -503.5 210t-188.5 564 t188.5 564.5t503.5 210.5z" />
<glyph unicode="&#x38e;" horiz-adv-x="1689" d="M249 1638h199l-326 -376h-153zM422 1493h217l414 -614l411 614h217l-528 -782v-711h-203v711z" />
<glyph unicode="&#x38f;" horiz-adv-x="1691" d="M243 1638h199l-326 -376h-153zM1541 178v-178h-600v178q177 97 276 263t99 368q0 240 -132 385t-348 145t-348.5 -145.5t-132.5 -384.5q0 -202 99 -368q100 -166 278 -263v-178h-600v178h319q-158 139 -231 288q-72 149 -72 333q0 318 192 515q191 197 496 197 q303 0 496 -197q192 -196 192 -505q0 -194 -71 -342t-232 -289h320z" />
<glyph unicode="&#x390;" horiz-adv-x="693" d="M396 1552h203v-202h-203v202zM5 1552h203v-202h-203v202zM441 2002h199l-326 -376h-153zM370 1120v-725q0 -145 34 -191q36 -48 144 -48h89v-156h-111q-180 0 -262 96q-82 98 -82 310l-1 714h189z" />
<glyph unicode="&#x391;" horiz-adv-x="1401" d="M700 1294l-274 -743h549zM586 1493h229l569 -1493h-210l-136 383h-673l-136 -383h-213z" />
<glyph unicode="&#x392;" horiz-adv-x="1405" d="M403 713v-547h324q163 0 241.5 67.5t78.5 206.5q0 140 -78.5 206.5t-241.5 66.5h-324zM403 1327v-450h299q148 0 220.5 55.5t72.5 169.5q0 113 -72.5 169t-220.5 56h-299zM201 1493h516q231 0 356 -96t125 -273q0 -137 -64 -218t-188 -101q149 -32 231.5 -133.5 t82.5 -253.5q0 -200 -136 -309t-387 -109h-536v1493z" />
<glyph unicode="&#x393;" horiz-adv-x="1141" d="M201 0v1493h929v-170h-727v-1323h-202z" />
<glyph unicode="&#x394;" horiz-adv-x="1401" d="M700 1294l-410 -1126h821zM16 0l570 1493h229l569 -1493h-1368z" />
<glyph unicode="&#x395;" horiz-adv-x="1294" d="M201 1493h944v-170h-742v-442h711v-170h-711v-541h760v-170h-962v1493z" />
<glyph unicode="&#x396;" horiz-adv-x="1403" d="M115 1493h1173v-154l-944 -1169h967v-170h-1219v154l944 1169h-921v170z" />
<glyph unicode="&#x397;" horiz-adv-x="1540" d="M201 1493h202v-612h734v612h202v-1493h-202v711h-734v-711h-202v1493z" />
<glyph unicode="&#x398;" horiz-adv-x="1612" d="M453 880h706v-170h-706v170zM807 1356q-220 0 -349 -164q-130 -164 -130 -447q0 -282 129.5 -446t349.5 -164t349 164q128 164 128 446q0 283 -128 447q-129 164 -349 164zM807 1520q314 0 502 -210.5t188 -564.5q0 -353 -188 -563q-188 -211 -502 -211q-315 0 -503 210 q-189 210 -189 564t189 565q188 210 503 210z" />
<glyph unicode="&#x399;" horiz-adv-x="604" d="M201 1493h202v-1493h-202v1493z" />
<glyph unicode="&#x39a;" horiz-adv-x="1343" d="M201 1493h202v-631l670 631h260l-741 -696l794 -797h-266l-717 719v-719h-202v1493z" />
<glyph unicode="&#x39b;" horiz-adv-x="1401" d="M229 0h-213l570 1493h229l569 -1493h-210l-474 1294z" />
<glyph unicode="&#x39c;" horiz-adv-x="1767" d="M201 1493h301l381 -1016l383 1016h301v-1493h-197v1311l-385 -1024h-203l-385 1024v-1311h-196v1493z" />
<glyph unicode="&#x39d;" horiz-adv-x="1532" d="M201 1493h272l662 -1249v1249h196v-1493h-272l-662 1249v-1249h-196v1493z" />
<glyph unicode="&#x39e;" horiz-adv-x="1294" d="M306 881h711v-170h-711v170zM201 1493h921v-170h-921v170zM201 170h921v-170h-921v170z" />
<glyph unicode="&#x39f;" horiz-adv-x="1612" d="M807 1356q-220 0 -349.5 -164t-129.5 -447q0 -282 129.5 -446t349.5 -164t348.5 164t128.5 446q0 283 -128.5 447t-348.5 164zM807 1520q314 0 502 -210.5t188 -564.5q0 -353 -188 -563.5t-502 -210.5q-315 0 -503.5 210t-188.5 564t188.5 564.5t503.5 210.5z" />
<glyph unicode="&#x3a0;" horiz-adv-x="1540" d="M1339 1493v-1493h-202v1323h-734v-1323h-202v1493h1138z" />
<glyph unicode="&#x3a1;" horiz-adv-x="1235" d="M403 1327v-561h254q141 0 218 73t77 208q0 134 -77 207t-218 73h-254zM201 1493h456q251 0 379.5 -113.5t128.5 -332.5q0 -221 -128.5 -334t-379.5 -113h-254v-600h-202v1493z" />
<glyph unicode="&#x3a3;" horiz-adv-x="1294" d="M433 170h730v-170h-962v170l479 624l-479 529v170h944v-170h-712l479 -525z" />
<glyph unicode="&#x3a4;" horiz-adv-x="1251" d="M-6 1493h1263v-170h-530v-1323h-203v1323h-530v170z" />
<glyph unicode="&#x3a5;" horiz-adv-x="1251" d="M-4 1493h217l414 -614l411 614h217l-528 -782v-711h-203v711z" />
<glyph unicode="&#x3a6;" horiz-adv-x="1612" d="M706 1166q-150 -21 -248 -108q-130 -115 -130 -313q0 -197 130 -312q98 -87 248 -108v841zM908 325q150 21 248 108q128 115 128 312q0 198 -128 313q-98 87 -248 108v-841zM706 158q-244 22 -402 156q-189 160 -189 431t189 432q157 135 402 157v159h202v-159 q244 -23 401 -157q188 -161 188 -432q0 -270 -188 -431q-157 -134 -401 -157v-157h-202v158z" />
<glyph unicode="&#x3a7;" horiz-adv-x="1403" d="M129 1493h217l371 -555l373 555h217l-480 -717l512 -776h-217l-420 635l-423 -635h-218l533 797z" />
<glyph unicode="&#x3a8;" horiz-adv-x="1612" d="M706 0q1 134 0 310q-214 0 -402 210q-184 204 -189 564v409h213v-409q0 -282 130 -446q110 -140 248 -154v1009h202v-1009q138 14 248 154q130 164 130 446v409h213v-409q-5 -360 -189 -564q-188 -210 -402 -210q-1 -72 0 -310h-202z" />
<glyph unicode="&#x3a9;" horiz-adv-x="1565" d="M1487 178v-178h-600v178q177 97 276 263t99 368q0 240 -132 385t-348 145t-348.5 -145.5t-132.5 -384.5q0 -202 99 -368q100 -166 278 -263v-178h-600v178h319q-158 139 -231 288q-72 149 -72 333q0 318 192 515q191 197 496 197q303 0 496 -197q192 -196 192 -505 q0 -194 -71 -342t-232 -289h320z" />
<glyph unicode="&#x3aa;" horiz-adv-x="604" d="M397 1870h203v-203h-203v203zM6 1870h203v-203h-203v203zM201 1493h202v-1493h-202v1493z" />
<glyph unicode="&#x3ab;" horiz-adv-x="1251" d="M719 1870h203v-203h-203v203zM328 1870h203v-203h-203v203zM-4 1493h217l414 -614l411 614h217l-528 -782v-711h-203v711z" />
<glyph unicode="&#x3ac;" horiz-adv-x="1350" d="M846 521l-44 231q-45 237 -223 237q-134 0 -195 -110q-77 -138 -77 -320q0 -220 75 -325q76 -107 197 -107q134 0 206 213zM949 827l99 293h164l-205 -607l40 -219q9 -49 44 -90q41 -48 73 -48h88v-156h-110q-94 0 -178 84q-41 42 -58 130q-46 -111 -140 -198 q-44 -41 -187 -41q-235 0 -349 152q-117 157 -117 432q0 294 127 432q141 154 339 154q311 0 370 -318zM761 1638h199l-326 -376h-153z" />
<glyph unicode="&#x3ad;" horiz-adv-x="1107" d="M731 1638h199l-326 -376h-153zM395 604q-112 24 -172 89q-60 64 -60 157q0 141 114 220q113 78 309 78q76 0 161 -12t183 -36v-167q-97 29 -177 42q-81 13 -152 13q-119 0 -188 -46q-70 -46 -70 -110q0 -70 68 -115q67 -44 183 -44h155v-152h-148q-137 0 -209 -51 q-78 -56 -78 -144q0 -90 84 -146q85 -56 236 -56q93 0 178 18q85 19 156 56v-171q-90 -28 -174 -42q-85 -14 -165 -14q-238 0 -367 91t-129 264q0 108 69 181t193 97z" />
<glyph unicode="&#x3ae;" horiz-adv-x="1298" d="M849 1638h199l-326 -376h-153zM1124 676v-1102h-184v1096q0 159 -62 238t-186 79q-149 0 -235 -95t-86 -259v-633h-185v1120h185v-174q66 101 155 151q90 50 207 50q193 0 292 -119q99 -120 99 -352z" />
<glyph unicode="&#x3af;" horiz-adv-x="693" d="M355 1120v-725q0 -145 34 -191q36 -48 144 -48h89v-156h-111q-180 0 -262 96q-82 98 -82 310l-1 714h189zM465 1638h199l-326 -376h-153z" />
<glyph unicode="&#x3b0;" horiz-adv-x="1185" d="M338 1120v-725q0 -135 50 -199q55 -69 162 -69q150 0 255 208q59 118 74 305q8 102 -22 230q-28 119 -134 250h186v0q70 -90 115 -213q42 -115 42 -269q0 -253 -128 -440q-156 -228 -410 -227q-179 0 -280 120q-98 118 -98 315l-1 714h189zM633 1552h203v-202h-203v202z M242 1552h203v-202h-203v202zM678 2002h199l-326 -376h-153z" />
<glyph unicode="&#x3b1;" horiz-adv-x="1350" d="M846 521l-44 231q-45 237 -223 237q-134 0 -195 -110q-77 -138 -77 -320q0 -220 75 -325q76 -107 197 -107q134 0 206 213zM949 827l99 293h164l-205 -607l40 -219q9 -49 44 -90q41 -48 73 -48h88v-156h-110q-94 0 -178 84q-41 42 -58 130q-46 -111 -140 -198 q-44 -41 -187 -41q-235 0 -349 152q-117 157 -117 432q0 294 127 432q141 154 339 154q311 0 370 -318z" />
<glyph unicode="&#x3b2;" horiz-adv-x="1307" d="M377 69v-495h-185v1539q0 456 426 456q434 0 434 -385q0 -274 -172 -374q280 -90 280 -357q0 -474 -482 -474q-212 0 -301 90zM377 309q111 -173 308 -173q288 0 288 314q0 282 -464 260v170q363 0 363 320q0 219 -234 219q-261 0 -261 -312v-798z" />
<glyph unicode="&#x3b3;" horiz-adv-x="1212" d="M361 944l245 -692l350 868h195l-453 -1120v-426h-184v426l-294 836q-44 126 -139 126h-49v158h70q197 0 259 -176z" />
<glyph unicode="&#x3b4;" horiz-adv-x="1253" d="M1004 1297q-102 70 -341 70q-253 0 -253 -117q0 -92 264 -140q208 -37 325 -149q142 -135 142 -412q0 -265 -137 -421q-137 -157 -377 -157q-239 0 -377 157q-137 156 -137 431q0 204 137 369q53 64 128 100q-156 79 -156 220q0 272 441 272q221 0 341 -70v-153zM516 978 q-68 -29 -123 -102q-86 -113 -86 -317q0 -203 85 -317q86 -115 235 -115q147 0 233 116t86 306q0 199 -91 295q-97 103 -223 114q-64 6 -116 20z" />
<glyph unicode="&#x3b5;" horiz-adv-x="1107" d="M395 604q-112 24 -172 89q-60 64 -60 157q0 141 114 220q113 78 309 78q76 0 161 -12t183 -36v-167q-97 29 -177 42q-81 13 -152 13q-119 0 -188 -46q-70 -46 -70 -110q0 -70 68 -115q67 -44 183 -44h155v-152h-148q-137 0 -209 -51q-78 -56 -78 -144q0 -90 84 -146 q85 -56 236 -56q93 0 178 18q85 19 156 56v-171q-90 -28 -174 -42q-85 -14 -165 -14q-238 0 -367 91t-129 264q0 108 69 181t193 97z" />
<glyph unicode="&#x3b6;" horiz-adv-x="1114" d="M714 127q132 -1 211 -76q84 -79 84 -199q0 -115 -74 -195q-80 -87 -243 -87v151q69 -5 111 39q32 35 32 72q0 53 -32 97q-31 42 -89 42q-606 0 -607 563q0 492 571 837h-532v185h870v-185q-724 -364 -724 -837q0 -407 422 -407z" />
<glyph unicode="&#x3b7;" horiz-adv-x="1298" d="M1124 676v-1102h-184v1096q0 159 -62 238t-186 79q-149 0 -235 -95t-86 -259v-633h-185v1120h185v-174q66 101 155 151q90 50 207 50q193 0 292 -119q99 -120 99 -352z" />
<glyph unicode="&#x3b8;" horiz-adv-x="1253" d="M945 710h-637q15 -299 84 -426q86 -156 235 -156q150 0 233 157q73 138 85 425zM942 880q-28 284 -82 384q-86 158 -233 158q-153 0 -234 -156q-64 -126 -83 -386h632zM627 1572q240 0 377 -212q137 -211 137 -585q0 -373 -137 -585q-137 -213 -377 -213q-241 0 -377 213 q-137 212 -137 585q0 374 137 585q136 212 377 212z" />
<glyph unicode="&#x3b9;" horiz-adv-x="693" d="M355 1120v-725q0 -145 34 -191q36 -48 144 -48h89v-156h-111q-180 0 -262 96q-82 98 -82 310l-1 714h189z" />
<glyph unicode="&#x3ba;" horiz-adv-x="1207" d="M191 1120h190v-465l483 465h224l-441 -422l510 -698h-225l-414 578l-137 -129v-449h-190v1120z" />
<glyph unicode="&#x3bb;" horiz-adv-x="1212" d="M634 1381l517 -1381h-195l-314 828l-386 -828h-195l491 1074l-74 198q-47 126 -154 126h-96v158l117 -2q226 -3 289 -173z" />
<glyph unicode="&#x3bc;" horiz-adv-x="1303" d="M174 -426v1546h184v-696q0 -145 69 -219t204 -74q148 0 222.5 84t74.5 252v653h184v-862q0 -60 17.5 -88.5t54.5 -28.5q9 0 25 5.5t44 17.5v-148q-41 -23 -77.5 -34t-71.5 -11q-69 0 -110 39t-56 119q-50 -79 -122.5 -118.5t-170.5 -39.5q-102 0 -173.5 39t-113.5 117 v-553h-184z" />
<glyph unicode="&#x3bd;" horiz-adv-x="1144" d="M416 0l-342 1120h198l289 -940q120 124 220 296q76 129 80 241q2 53 -22 153q-28 119 -134 250h186v0q69 -89 115 -213q42 -114 42 -192q0 -196 -136 -371q-177 -228 -300 -344h-196z" />
<glyph unicode="&#x3be;" horiz-adv-x="1142" d="M730 127q132 -1 211 -76q84 -79 84 -199q0 -115 -74 -195q-80 -87 -243 -87v151q69 -5 111 39q32 35 32 72q0 53 -32 97q-31 42 -89 42q-623 0 -623 437q0 300 333 388q-280 36 -280 296q0 197 220 279h-208v185h789v-185q-629 0 -629 -291q0 -191 528 -200v-170 q-570 22 -568 -302q1 -271 438 -281z" />
<glyph unicode="&#x3bf;" horiz-adv-x="1253" d="M627 991q-148 0 -234 -115.5t-86 -316.5t85.5 -316.5t234.5 -115.5q147 0 233 116t86 316q0 199 -86 315.5t-233 116.5zM627 1147q240 0 377 -156t137 -432q0 -275 -137 -431.5t-377 -156.5q-241 0 -377.5 156.5t-136.5 431.5q0 276 136.5 432t377.5 156z" />
<glyph unicode="&#x3c0;" horiz-adv-x="1233" d="M74 1120h1073v-184h-141v-688q0 -72 24.5 -103.5t79.5 -31.5q15 0 37 2.5t29 3.5v-133q-35 -13 -72 -19t-74 -6q-120 0 -166 65.5t-46 241.5v668h-413v-936h-188v936h-143v184z" />
<glyph unicode="&#x3c1;" horiz-adv-x="1300" d="M276 920q61 102 212 192q59 35 241 35q204 0 331.5 -162t127.5 -426t-127.5 -426t-331.5 -162q-123 0 -211.5 48.5t-146.5 148.5v-594h-185v975q0 231 90 371zM997 559q0 203 -83.5 318.5t-229.5 115.5t-229.5 -115.5t-83.5 -318.5t83.5 -318.5t229.5 -115.5t229.5 115.5 t83.5 318.5z" />
<glyph unicode="&#x3c2;" horiz-adv-x="1202" d="M680 -29q-269 0 -418 159t-149 429q0 274 150.5 431t412.5 157q85 0 166 -17.5t157 -52.5v-172q-78 43 -156.5 64.5t-158.5 21.5q-179 0 -278 -113.5t-99 -318.5t99 -318.5t274 -113.5q131 0 211 -76q84 -79 84 -199q0 -115 -74 -195q-80 -87 -243 -87v151q69 -5 111 39 q32 35 32 72q0 53 -32 97q-31 42 -89 42z" />
<glyph unicode="&#x3c3;" horiz-adv-x="1298" d="M627 974q-152 0 -234 -110q-86 -115 -86 -305q0 -201 85.5 -316.5t234.5 -115.5q147 0 233 116t86 316q0 183 -86 305q-79 110 -233 110zM627 1120h611v-184h-206q109 -156 109 -377q0 -275 -137 -431q-137 -157 -377 -157q-241 0 -377 157q-137 156 -137 431 q0 277 137 432q113 129 377 129z" />
<glyph unicode="&#x3c4;" horiz-adv-x="1233" d="M742 204q36 -48 144 -48h89v-156h-111q-180 0 -262 96q-82 98 -82 310v530h-420v184h1033v-184h-425v-541q0 -145 34 -191z" />
<glyph unicode="&#x3c5;" horiz-adv-x="1185" d="M338 1120v-725q0 -135 50 -199q55 -69 162 -69q150 0 255 208q59 118 74 305q8 102 -22 230q-28 119 -134 250h186v0q70 -90 115 -213q42 -115 42 -269q0 -253 -128 -440q-156 -228 -410 -227q-179 0 -280 120q-98 118 -98 315l-1 714h189z" />
<glyph unicode="&#x3c6;" horiz-adv-x="1351" d="M829 971q-65 0 -65 -145v-686q95 0 190 104q85 93 85 316q0 208 -86 320q-70 91 -124 91zM829 1128q140 0 267 -132q137 -141 137 -436q0 -271 -137 -432q-129 -152 -332 -152v-402h-183v401q-199 0 -333 153q-136 156 -136 431q0 286 136 432q102 109 268 137v-163 q-66 -23 -124 -101q-86 -115 -86 -305q0 -202 86 -317q77 -103 189 -103v687q0 302 248 302z" />
<glyph unicode="&#x3c7;" horiz-adv-x="1183" d="M732 -250l-149 383l-307 -560h-217l434 792l-182 471q-49 126 -203 126h-49v158l70 -2q258 -7 323 -174l148 -383l307 560h217l-434 -792l182 -471q49 -126 203 -126h49v-158l-70 2q-258 7 -322 174z" />
<glyph unicode="&#x3c8;" horiz-adv-x="1351" d="M581 -25q-231 37 -338 134q-131 119 -131 362v649h186v-642q0 -183 85 -259q74 -66 198 -80v981h183v-980q131 14 198 80q85 84 85 259v641h186v-648q0 -252 -131 -362q-118 -99 -338 -134v-402h-183v401z" />
<glyph unicode="&#x3c9;" horiz-adv-x="1715" d="M550 -29q-415 0 -415 594q0 235 155 555h198q-143 -320 -143 -560q0 -433 222 -433q203 0 203 538h170q0 -538 203 -538q222 0 222 433q0 240 -143 560h198q155 -320 155 -555q0 -594 -415 -594q-272 0 -305 299q-41 -299 -305 -299z" />
<glyph unicode="&#x3ca;" horiz-adv-x="693" d="M370 1120v-725q0 -145 34 -191q36 -48 144 -48h89v-156h-111q-180 0 -262 96q-82 98 -82 310l-1 714h189zM396 1552h203v-202h-203v202zM5 1552h203v-202h-203v202z" />
<glyph unicode="&#x3cb;" horiz-adv-x="1185" d="M635 1552h203v-202h-203v202zM244 1552h203v-202h-203v202zM338 1120v-725q0 -135 50 -199q55 -69 162 -69q150 0 255 208q59 118 74 305q8 102 -22 230q-28 119 -134 250h186v0q70 -90 115 -213q42 -115 42 -269q0 -253 -128 -440q-156 -228 -410 -227q-179 0 -280 120 q-98 118 -98 315l-1 714h189z" />
<glyph unicode="&#x3cc;" horiz-adv-x="1253" d="M776 1638h199l-326 -376h-153zM627 991q-148 0 -234 -115.5t-86 -316.5t85.5 -316.5t234.5 -115.5q147 0 233 116t86 316q0 199 -86 315.5t-233 116.5zM627 1147q240 0 377 -156t137 -432q0 -275 -137 -431.5t-377 -156.5q-241 0 -377.5 156.5t-136.5 431.5 q0 276 136.5 432t377.5 156z" />
<glyph unicode="&#x3cd;" horiz-adv-x="1185" d="M685 1638h199l-326 -376h-153zM338 1120v-725q0 -135 50 -199q55 -69 162 -69q150 0 255 208q59 118 74 305q8 102 -22 230q-28 119 -134 250h186v0q70 -90 115 -213q42 -115 42 -269q0 -253 -128 -440q-156 -228 -410 -227q-179 0 -280 120q-98 118 -98 315l-1 714h189z " />
<glyph unicode="&#x3ce;" horiz-adv-x="1715" d="M550 -29q-415 0 -415 594q0 235 155 555h198q-143 -320 -143 -560q0 -433 222 -433q203 0 203 538h170q0 -538 203 -538q222 0 222 433q0 240 -143 560h198q155 -320 155 -555q0 -594 -415 -594q-272 0 -305 299q-41 -299 -305 -299zM996 1638h199l-326 -376h-153z" />
<glyph unicode="&#x3cf;" horiz-adv-x="1343" d="M201 1493h202v-631l670 631h260l-741 -696l794 -797l-366 -426h-134l272 388l-755 757v-719h-202v1493z" />
<glyph unicode="&#x3d0;" horiz-adv-x="1258" d="M361 880q80 0 181.5 2t169.5 63q121 108 121 255q1 222 -203 222q-122 0 -215 -186q-54 -108 -54 -356zM855 815q246 -167 246 -400q0 -130 -59 -225q-126 -213 -375 -213t-388 213q-111 168 -112 574t119 596q134 213 344 212q164 -1 273 -114t110 -254.5t-45.5 -232.5 t-112.5 -156zM670 730q-89 -20 -312 -20q0 -278 58 -406q80 -176 254 -176q143 0 230 156q24 45 24.5 149.5t-86 183.5t-168.5 113z" />
<glyph unicode="&#x3d1;" horiz-adv-x="1268" d="M942 880q0 246 -49 372q-66 170 -215 170q-83 0 -143 -68.5t-60 -158.5q0 -170 121 -260q74 -55 346 -55zM945 710q-308 0 -439 65q-211 105 -211 415q0 160 104 271t279 111q218 0 340.5 -206t122.5 -592t-142 -591.5t-380.5 -205.5t-372 219t-133.5 685l188 -1v-160 q0 -269 88 -430.5t239.5 -161.5t234 161t82.5 421z" />
<glyph unicode="&#x3d2;" horiz-adv-x="1431" d="M1094 1297q-160 -72 -242 -341q-42 -141 -42 -306v-650h-203v650q0 165 -42 306q-82 269 -242 341q-77 35 -136.5 35t-99.5 -9v170q31 10 86.5 10t140.5 -13q323 -48 395 -446q107 379 394 446q38 9 85.5 9t89.5 -32q83 -64 83 -155q0 -41 -17 -88q-25 -66 -100 -66 q-133 0 -150 139z" />
<glyph unicode="&#x3d3;" horiz-adv-x="1725" d="M249 1638h199l-326 -376h-153zM1430 1297q-160 -72 -242 -341q-42 -141 -42 -306v-650h-203v650q0 165 -42 306q-82 269 -242 341q-77 35 -136.5 35t-99.5 -9v170q31 10 86.5 10t140.5 -13q323 -48 395 -446q107 379 394 446q38 9 85.5 9t89.5 -32q83 -64 83 -155 q0 -41 -17 -88q-25 -66 -100 -66q-133 0 -150 139z" />
<glyph unicode="&#x3d4;" horiz-adv-x="1431" d="M803 1870h203v-203h-203v203zM412 1870h203v-203h-203v203zM1094 1297q-160 -72 -242 -341q-42 -141 -42 -306v-650h-203v650q0 165 -42 306q-82 269 -242 341q-77 35 -136.5 35t-99.5 -9v170q31 10 86.5 10t140.5 -13q323 -48 395 -446q107 379 394 446q38 9 85.5 9 t89.5 -32q83 -64 83 -155q0 -41 -17 -88q-25 -66 -100 -66q-133 0 -150 139z" />
<glyph unicode="&#x3d5;" horiz-adv-x="1351" d="M764 1556v-413q199 0 332 -153q137 -156 137 -431t-137 -431q-133 -153 -332 -153v-401h-183v401q-199 0 -333 153q-136 156 -136 431t136 431q134 153 333 153v413h183zM764 139q113 0 190 103q84 115 85 317q1 200 -85 317q-77 103 -190 103v-840zM581 139v840 q-113 0 -189 -103q-87 -117 -86 -317q1 -202 86 -317q76 -103 189 -103z" />
<glyph unicode="&#x3d6;" horiz-adv-x="1715" d="M65 936v184h1580v-184h-147q77 -207 77 -371q0 -595 -415 -594q-271 1 -305 299q-41 -299 -305 -299q-415 0 -415 594q0 164 77 371h-147zM1294 936h-878q-71 -209 -71 -376q0 -433 222 -433q207 0 203 538h170q-4 -541 203 -538q222 3 222 433q0 167 -71 376z" />
<glyph unicode="&#x3d7;" horiz-adv-x="1359" d="M1017 -10q-246 32 -279 272q-10 73 -10 137.5t13 117.5l-189 -108q-96 -265 -296 -389q-55 -34 -89 -34q-55 0 -55 79q0 154 292 419q62 138 62 260q0 58 -14 112q-26 104 -168 104q-57 0 -148 -108v224q64 48 155 48q26 0 53 -4q285 -39 285 -356q0 -91 -29 -168 l189 108q96 265 296 389q55 34 89 34q55 0 55 -79q0 -154 -292 -419q-62 -138 -62 -260q0 -58 14 -112q26 -104 168 -104q57 0 148 108q-38 -544 -243 -646q-70 -36 -151 -36t-174 49v160q95 -49 168 -49q164 0 212 251z" />
<glyph unicode="&#x3d8;" horiz-adv-x="1612" d="M900 -24v-400h-184v400q-252 26 -412 205q-189 210 -189 564t189 565q188 210 503 210q314 0 502 -210q188 -211 188 -565q0 -353 -188 -563q-159 -179 -409 -206zM807 1356q-220 0 -349 -164q-130 -164 -130 -447q0 -282 130 -446q129 -164 349 -164t349 164 q128 164 128 446q0 283 -128 447q-129 164 -349 164z" />
<glyph unicode="&#x3d9;" horiz-adv-x="1253" d="M627 991q-148 0 -234 -115q-86 -116 -86 -317t85 -317q86 -115 235 -115q147 0 233 116t86 316q0 199 -86 315q-86 117 -233 117zM717 -24v-402h-170v402q-190 27 -297 152q-137 156 -137 431q0 276 137 432q136 156 377 156q240 0 377 -156t137 -432q0 -275 -137 -431 q-106 -123 -287 -152z" />
<glyph unicode="&#x3da;" horiz-adv-x="1328" d="M838 1323q-269 0 -365 -119q-123 -152 -123 -459q0 -331 91 -458q109 -152 309 -152q122 0 211 -84q84 -79 84 -199q0 -115 -74 -195q-80 -87 -243 -87v151q69 -5 111 39q32 35 32 72q0 53 -32 97q-31 42 -89 42q-320 0 -462 203q-149 214 -149 571q0 334 185 571 q138 177 514 177h357v-170h-357z" />
<glyph unicode="&#x3db;" horiz-adv-x="1202" d="M615 -29q-204 0 -353 159t-149 429q0 274 150.5 417.5t412.5 143.5h429v-156h-421q-179 0 -278 -99.5t-99 -305.5q0 -205 98.5 -318.5t209.5 -113.5q131 0 211 -76q84 -79 84 -199q0 -115 -74 -195q-80 -87 -243 -87v151q69 -5 111 39q32 35 32 72q0 53 -32 97 q-32 42 -89 42z" />
<glyph unicode="&#x3dc;" horiz-adv-x="1178" d="M201 1493h858v-170h-656v-440h592v-170h-592v-713h-202v1493z" />
<glyph unicode="&#x3dd;" horiz-adv-x="939" d="M238 0v1154q0 160 136 302q96 100 265 100q49 0 99 -9q49 -9 100 -27v-164q-36 28 -77 42q-41 15 -85 15q-120 0 -178 -62q-75 -81 -75 -192v-311h321v-143h-321v-705q0 -146 -139 -311q-98 -115 -271 -115q-57 0 -108 10q-51 11 -97 33v164q49 -31 99 -47q50 -17 98 -17 q87 0 151 75q82 95 82 208z" />
<glyph unicode="&#x3de;" horiz-adv-x="1351" d="M566 1159l-110 -421l780 382l-234 -724q-39 -96 -12 -138q66 -108 197 -73v-189q-230 0 -311 70q-95 82 -76 264l154 474l-762 -367l172 656q39 96 12 138q-66 108 -197 73v189q230 0 311 -70q95 -82 76 -264z" />
<glyph unicode="&#x3df;" horiz-adv-x="1351" d="M1160 880l-281 -880h-184l226 710h-730l281 845h184l-226 -675h730z" />
<glyph unicode="&#x3e0;" horiz-adv-x="1772" d="M593 1338v-628h-170v585q-205 -75 -309 -180v198q208 207 594 207q473 0 710 -306q214 -276 214 -850q0 -424 -246 -790h-225q260 332 260 790q0 465 -82 590q-82 -47 -177 -124q-64 -52 -64 -260v-570h-205q2 33 2 565q0 247 182 390l187 141q-208 260 -556 260 q-48 0 -115 -18z" />
<glyph unicode="&#x3e1;" horiz-adv-x="1285" d="M878 308l-239 -308h-185l356 448q-14 35 -64 112l-442 -560h-185l543 688q-98 127 -144 160q-188 132 -399 132v164q301 0 543 -216q224 -200 396 -632q116 -289 116 -664h-168q0 350 -96 596z" />
<glyph unicode="&#x3e2;" horiz-adv-x="1912" d="M1797 736q0 -273 -61 -476q-68 -230 -287 -396q-180 -136 -456 -236q-118 -42 -258 -65l-97 133q138 24 259 72q205 81 369 209q-103 23 -171 88q-100 94 -139 267q-39 -173 -139 -267q-101 -94 -247 -94q-211 0 -332 177q-123 180 -123 588q0 201 100 471 q59 159 152 286h249q-84 -70 -219 -391q-67 -159 -67 -342q0 -307 72 -414q73 -109 198 -109q114 0 186 105q71 104 71 302v241h199v-241q0 -198 70 -302q70 -105 186 -105q134 0 199 109q71 119 71 414q0 183 -67 342q-135 321 -219 391h250q95 -130 151 -286 q100 -277 100 -471z" />
<glyph unicode="&#x3e3;" horiz-adv-x="1715" d="M1160 0q-275 1 -305 270q-35 -275 -305 -275q-415 0 -415 570q0 235 135 555h218q-143 -320 -143 -560q-1 -361 222 -362q208 -1 203 467h170q-3 -469 203 -467q222 2 222 362q0 240 -143 560h218q135 -320 135 -555q1 -209 -56 -341q-105 -244 -302 -402 q-154 -123 -364 -196q-107 -37 -219 -53l-91 108q81 11 220 54q199 63 397 265z" />
<glyph unicode="&#x3e4;" horiz-adv-x="1553" d="M748 1354q-180 -18 -276 -150q-133 -185 -133 -459q0 -249 110 -420q98 -152 293 -152q196 0 294 152q99 153 99 420v748h217v-1919h-217v656q-68 -132 -172 -196q-104 -63 -274 -63q-256 0 -412 213q-162 221 -162 548q0 310 186 574q151 213 447 214v-166z" />
<glyph unicode="&#x3e5;" horiz-adv-x="1350" d="M651 1021q-154 -14 -234 -113q-114 -141 -114 -349q0 -189 94 -318q83 -116 249 -116t250 115q84 116 84 319v561h184v-1546h-184v594q-58 -100 -146 -148q-89 -49 -233 -49q-218 0 -351 162q-137 168 -137 416q0 236 158 436q127 162 380 162v-126z" />
<glyph unicode="&#x3e6;" horiz-adv-x="1621" d="M844 1147q295 0 472 -179q190 -194 190 -453q0 -204 -60 -365q-67 -178 -237 -306q-195 -147 -436 -216q-185 -53 -258 -65l-97 133q134 22 259 72q217 87 369 209q136 109 180 213q54 127 54 319q0 157 -126 307q-115 134 -320 134q-203 0 -318 -129 q-113 -126 -113 -348v-473h-202v1493h202v-614q78 135 183 201q105 67 258 67z" />
<glyph unicode="&#x3e7;" horiz-adv-x="1259" d="M812 836q-127 152 -268 152q-31 0 -86 -22q-29 -11 -66 -44q-29 -26 -45 -58q-14 -27 -14 -60q0 -32 12 -53q15 -28 39 -45q26 -20 61 -26q32 -5 62 -5q25 0 96 25q59 20 132 69q36 24 77 67zM1038 843q108 -192 108 -404q0 -176 -127 -332q-111 -136 -376 -136 q-141 0 -240 46q-75 35 -128 35q-65 0 -146 -65l-84 147q135 76 230 76q130 0 212 -46q63 -35 154 -35q157 0 236 94q75 89 75 216q0 140 -49 253q-27 -25 -58 -48q-70 -52 -187 -95q-102 -38 -173 -36q-41 1 -113 11q-50 7 -114 41q-48 26 -89 98q-30 52 -30 118 q0 59 29 118q31 61 77 108q62 63 142 97q101 43 195 43q210 0 354 -159q56 86 98 190l136 -80q-55 -146 -132 -255z" />
<glyph unicode="&#x3e8;" horiz-adv-x="1406" d="M1274 -236q-256 -190 -531 -190q-337 0 -664 419q698 497 877 716q108 132 108 288q0 141 -108 242q-99 93 -263 93q-180 0 -274 -146q-35 -54 -59 -117h-240q44 161 130 263q163 194 443 194q275 0 436 -144q162 -145 162 -386q0 -216 -162 -398q-265 -270 -753 -649 q156 -181 369 -181q297 0 529 179v-183z" />
<glyph unicode="&#x3e9;" horiz-adv-x="1243" d="M1116 -273q-218 -153 -452 -153q-274 0 -564 377q578 345 745 539q92 107 92 232q0 111 -92 194q-84 75 -223 75q-153 0 -233 -117q-30 -44 -50 -94h-204q37 129 110 211q139 156 377 156q232 0 370 -116t138 -310q0 -164 -138 -320q-175 -197 -640 -485 q145 -186 314 -186q253 0 450 144v-147z" />
<glyph unicode="&#x3ea;" horiz-adv-x="1572" d="M474 170h622l-307 458zM297 220l384 573l-292 443q-19 29 -45 55q-34 34 -97 34q-25 0 -47 -4l-69 -10v187q33 11 65 16q31 5 59 5q114 0 189 -67q44 -40 91 -110l258 -383l265 383q52 75 91 110q75 67 189 67q29 0 59 -5q32 -5 65 -16v-187l-68 10q-23 4 -47 4 q-60 0 -98 -34q-19 -17 -45 -55l-302 -443l372 -573q6 -9 13 -17q29 -33 98 -33h71v-170h-1341v170h71q72 0 98 33q12 15 13 17z" />
<glyph unicode="&#x3eb;" horiz-adv-x="1280" d="M410 158h460l-228 312zM221 196l313 420l-239 317q-21 28 -38 42q-29 25 -83 25q-21 0 -40 -3l-58 -7v141q28 8 55 12q26 4 50 4q131 0 195 -51q37 -30 77 -83l197 -262l197 262q40 53 77 83q64 51 195 51q24 0 50 -4q27 -4 55 -12v-141l-58 7q-19 3 -40 3q-54 0 -83 -25 q-17 -14 -38 -42l-246 -328l301 -409q6 -8 11 -13q25 -25 83 -25h73v-158h-1173v158h73q58 0 83 25q5 5 11 13z" />
<glyph unicode="&#x3ec;" horiz-adv-x="1432" d="M810 1325q-298 2 -385 -113q-56 -74 -78 -234q81 86 166 120q123 49 253 49q245 0 398 -162t153 -426t-153 -426t-416 -162q-306 0 -470 156q-163 155 -163 491q0 478 139 688q124 187 556 187q115 0 264 10q160 10 235 49v-177q-94 -36 -245 -44q-108 -6 -254 -6z M1098 559q0 193 -100 308t-286 115q-188 0 -292 -115q-105 -116 -105 -308q0 -189 105 -309q101 -115 292 -115q188 0 286 115q100 116 100 309z" />
<glyph unicode="&#x3ed;" horiz-adv-x="1253" d="M667 1335q-227 2 -300 -118q-44 -74 -64 -243q41 70 142 124q91 49 211 49q204 0 331 -162q128 -162 128 -426t-128 -426q-127 -162 -346 -162q-255 0 -392 156q-136 155 -136 491q0 478 116 688q103 187 438 187q95 0 187 10q83 10 154 49v-167q-93 -39 -162 -44 q-90 -6 -179 -6zM924 559q0 205 -83 319q-84 115 -230 115q-149 0 -235 -115q-88 -116 -88 -319q0 -199 88 -319q84 -115 235 -115q148 0 230 115q83 116 83 319z" />
<glyph unicode="&#x3ee;" horiz-adv-x="1251" d="M1207 1120v-270h-203v100h-277v-1376h-203v1376h-277v-100h-203v270h480v373h203v-373h480z" />
<glyph unicode="&#x3ef;" horiz-adv-x="1098" d="M1044 1119v-256h-173v112h-229v-1402h-185v1402h-229v-112h-173v256h402v368h185v-368h402z" />
<glyph unicode="&#x3f0;" horiz-adv-x="1359" d="M552 409q-96 -265 -296 -389q-55 -34 -89 -34q-55 0 -55 79q0 154 292 419q62 138 62 260q0 58 -14 112q-26 104 -168 104q-57 0 -148 -108v224q64 48 155 48q26 0 53 -4q285 -37 285 -356q0 -91 -29 -168l189 108q96 265 296 389q55 34 89 34q55 0 55 -79 q0 -154 -292 -419q-62 -138 -62 -260q0 -58 14 -112q26 -104 168 -104q57 0 148 108v-224q-64 -48 -155 -48q-26 0 -53 4q-285 37 -285 356q0 91 29 168z" />
<glyph unicode="&#x3f1;" horiz-adv-x="1300" d="M186 549q0 208 90 371q54 98 212 192q59 35 241 35q204 0 331 -162q128 -162 128 -426t-128 -426q-127 -162 -331 -162q-120 0 -211 49q-89 48 -147 148q5 -424 293 -424h500v-170h-484q-494 0 -494 730v245zM997 559q0 203 -83 319q-84 115 -230 115t-230 -115 q-83 -116 -83 -319t83 -319q84 -115 230 -115t230 115q83 116 83 319z" />
</font>
</defs>
</svg>
