<?xml version="1.0" standalone="no"?>
<!DOCTYPE svg PUBLIC "-//W3C//DTD SVG 1.1//EN" "http://www.w3.org/Graphics/SVG/1.1/DTD/svg11.dtd" >
<svg xmlns="http://www.w3.org/2000/svg">
<metadata></metadata>
<defs>
<font id="marck_scriptregular" horiz-adv-x="1001" >
<font-face units-per-em="2048" ascent="1638" descent="-410" />
<missing-glyph horiz-adv-x="983" />
<glyph horiz-adv-x="0" />
<glyph horiz-adv-x="682" />
<glyph horiz-adv-x="20" />
<glyph horiz-adv-x="20" />
<glyph unicode="&#xd;" horiz-adv-x="681" />
<glyph unicode=" "  horiz-adv-x="983" />
<glyph unicode="&#x09;" horiz-adv-x="983" />
<glyph unicode="&#xa0;" horiz-adv-x="983" />
<glyph unicode="!" horiz-adv-x="526" d="M481 1315l97 -60q-293 -500 -461 -976h-115q127 506 479 1036zM131 28.5q27 26.5 27 64.5t-27 63.5t-64.5 25.5t-63.5 -25.5t-26 -63.5t26 -64.5t63.5 -26.5t64.5 26.5z" />
<glyph unicode="&#x22;" horiz-adv-x="40" d="M193 1253l-168 -254h-66l119 310zM385 1249l-164 -250h-69l118 301z" />
<glyph unicode="#" horiz-adv-x="1177" d="M86 494l274 -2q14 49 70 243h-297l21 99h309q63 201 149 446l93 -39q-45 -121 -140 -405q174 4 258 10q86 262 150 444l92 -37q-53 -139 -135 -401q39 0 81 3t89 6t69 5l-20 -94q-150 -16 -252 -20l-76 -252q186 8 277 14l-19 -98q-47 -4 -284 -15q-63 -223 -93 -381 l-100 -24q27 164 90 397h-258q-68 -252 -94 -381l-100 -26q37 193 94 407q-117 0 -268 4zM463 492l258 4q70 236 74 249q-176 -8 -260 -8z" />
<glyph unicode="$" horiz-adv-x="993" d="M231 -102l25 110q-133 0 -201.5 48t-68.5 122q0 106 119.5 200.5t302.5 100.5q33 82 38 111q-94 29 -144 73t-50 121q0 143 159.5 286.5t319.5 178.5q37 74 62 115l59 -21l-35 -77q84 0 136.5 -34t52.5 -104q0 -115 -136.5 -215t-265.5 -100l-20 -55q-12 -35 -19 -49 q127 -23 187.5 -84.5t60.5 -147.5q0 -156 -156.5 -313.5t-322.5 -157.5l-33 -119zM279 82l108 336q-104 -14 -167.5 -70.5t-63.5 -123t33 -104.5t90 -38zM463 428l-111 -346q115 0 218.5 108.5t103.5 215.5q0 127 -160 167q-18 -45 -31 -88q41 0 56 -2l-11 -55h-65zM510 883 l51 -6l123 280q-123 -14 -203 -94t-80 -184.5t99 -145.5l30 80q-25 2 -43 14zM754 1155l-119 -276q92 6 154.5 60t62.5 122q0 90 -98 94z" />
<glyph unicode="%" horiz-adv-x="1110" d="M492.5 310.5q74.5 66.5 159.5 66.5t127 -36t42 -106.5t-76.5 -139t-177.5 -68.5q-150 0 -149 127q0 90 74.5 156.5zM520 170q0 -86 82 -86q41 0 79 46t38 97q0 100 -74 101q-49 0 -87 -49.5t-38 -108.5zM559 761.5q-80 -69.5 -162 -69.5q-158 0 -157 123q0 88 75.5 155.5 t159.5 67.5t124 -32.5t40 -85.5q0 -89 -80 -158.5zM545 909q0 86 -84 86q-43 0 -81 -50t-38 -123.5t74 -73.5q51 0 90 50t39 111zM1104 1038l55 -43l-37 -28q-696 -543 -1056 -961l-76 66q45 68 253 274.5t469 424.5t392 267z" />
<glyph unicode="&#x26;" horiz-adv-x="1044" d="M989 225l55 -35q-27 -88 -89 -140t-136 -52t-168 94q-109 -94 -285 -94t-272 84t-96 206t100.5 215t282.5 138q-39 111 -39 180q0 109 87 181.5t204 72.5t185.5 -52t68.5 -136q0 -178 -346 -266q100 -246 172 -353q47 68 108 252h66q-8 -59 -46 -152.5t-81 -152.5 q70 -88 121 -88q69 0 108 98zM723 978q-35 34 -95.5 34t-103.5 -48.5t-43 -107.5t35 -172q242 63 242 203q0 57 -35 91zM242.5 178q62.5 -74 189.5 -74t180 48q-109 166 -213 428q-94 -20 -156.5 -88t-62.5 -154t62.5 -160z" />
<glyph unicode="'" horiz-adv-x="108" d="M195 1249l-164 -250h-70l119 301z" />
<glyph unicode="(" horiz-adv-x="507" d="M539 1384l82 -49q-254 -348 -367 -744t-113 -870h-90q-6 86 -6 177q0 428 129 824t365 662z" />
<glyph unicode=")" horiz-adv-x="436" d="M-16 -279l-82 50q254 348 366.5 744t112.5 869h90q6 -86 6 -176q0 -428 -128.5 -824.5t-364.5 -662.5z" />
<glyph unicode="*" horiz-adv-x="425" d="M264 1153l103 82l41 -61l-105 -70l123 20v-75l-131 -9l100 -86l-53 -51l-100 92v-129h-74v129l-86 -77l-53 55l82 61l-107 -18l-2 71q27 4 69 7.5t56 5.5l-90 69l49 78q16 -12 49 -44t51 -46q10 111 15 133l88 -20z" />
<glyph unicode="+" horiz-adv-x="534" d="M297 272h-96q4 141 8 195l-191 -23l-24 111q80 16 223 27q16 164 29 229l110 -25l-22 -186h198v-96l-213 -25z" />
<glyph unicode="," horiz-adv-x="274" d="M23.5 130q27.5 26 67.5 26t62.5 -23.5t22.5 -62.5q0 -90 -156 -203l-45 65q82 66 84 70q-63 20 -63 66q0 36 27.5 62z" />
<glyph unicode="-" horiz-adv-x="415" d="M422 600v-96l-424 -60l-25 111q177 35 449 45z" />
<glyph unicode="." horiz-adv-x="268" d="M-2 71.5q0 34.5 24.5 59.5t59.5 25t59.5 -25t24.5 -59.5t-24.5 -59t-59.5 -24.5t-59.5 24.5t-24.5 59z" />
<glyph unicode="/" horiz-adv-x="835" d="M1024 1477l80 -43q-330 -438 -570.5 -824.5t-488.5 -867.5l-90 27q246 479 490.5 870.5t578.5 837.5z" />
<glyph unicode="0" horiz-adv-x="925" d="M855 942.5q69 -65.5 69 -189.5t-104.5 -302.5t-271.5 -310.5t-319 -132q-248 0 -247 277q0 162 103 330.5t266 280.5t321 112q114 0 183 -65.5zM697.5 465q62.5 137 62.5 240.5t-47 158t-129 54.5q-143 0 -285.5 -185.5t-142.5 -372.5q0 -100 47 -164.5t138 -64.5 t192.5 98.5t164 235.5z" />
<glyph unicode="1" horiz-adv-x="446" d="M473 969q-6 -35 -84 -178q-246 -442 -260 -754l-131 -21q-12 33 -12 109q0 182 237 666q-78 -31 -127 -31t-92 16l45 105q25 -6 49 -7q66 0 133.5 41t104.5 92.5t63.5 51.5t52 -18.5t25.5 -41t-4 -30.5z" />
<glyph unicode="2" horiz-adv-x="845" d="M436.5 931q141.5 77 236.5 77t150.5 -51.5t55.5 -145.5t-76 -171t-303.5 -192.5t-421.5 -283.5q281 43 522 43q55 0 88 -4v-129q-45 -8 -60.5 -7t-50 -1.5t-135 -7.5t-206 -15t-143.5 -15t-46 -5q-33 0 -57.5 41.5t-24.5 80.5q16 63 162.5 184.5t376.5 239.5 q68 35 125 90.5t57 104.5q0 94 -100 94q-133 0 -342 -172l-35 68q86 100 227.5 177z" />
<glyph unicode="3" horiz-adv-x="833" d="M874 827q0 -100 -107.5 -180t-215.5 -112q84 -49 128 -92.5t44 -98.5q0 -135 -151.5 -236.5t-325.5 -101.5q-84 0 -167 26.5t-116 63.5l92 86q29 -29 77 -51t83 -22q121 0 220.5 62t99.5 151q0 53 -49.5 94t-131.5 63q-47 14 -47 47q0 45 185 88q68 16 125 54.5t57 84.5 t-32 71.5t-79 25.5t-144 -50t-202 -130l-33 67q86 102 234.5 180t239 78t153.5 -50t63 -118z" />
<glyph unicode="4" horiz-adv-x="790" d="M326 82q0 109 59 262q-129 -10 -210 -26.5t-87 -16.5q-47 0 -72.5 35t-25.5 64.5t2 37.5q12 66 172 212.5t336 265t231 118.5q35 0 56.5 -22.5t21.5 -58t-39 -98t-66.5 -116t-46.5 -94.5q-37 -84 -59 -145q70 4 117 4t80 -4q-27 -133 -35 -140l-221 -4q-53 -96 -86 -321 l-119 -19q-8 27 -8 66zM436 485q47 127 193 398q-123 -63 -287 -207t-223 -238q208 37 317 47z" />
<glyph unicode="5" horiz-adv-x="786" d="M887 864q-27 2 -124 2t-164 -8t-167 -35q-119 -174 -145 -245q55 6 98 6q139 0 237.5 -67.5t98.5 -168.5q0 -141 -147.5 -241.5t-337 -100.5t-265.5 98l86 78q25 -29 84.5 -51t108.5 -22q115 0 201 65.5t86 159.5q0 66 -76 108.5t-197 42.5t-121 74q0 33 58.5 133.5 t65.5 114.5t22.5 36.5t21.5 30t20.5 23.5t24.5 25q31 16 72 28q162 39 371 39h96z" />
<glyph unicode="6" horiz-adv-x="821" d="M612 672q80 0 132.5 -48.5t52.5 -125.5q0 -166 -187.5 -327t-349.5 -161q-125 0 -194.5 65.5t-69.5 190.5q0 211 123 391.5t293 273.5t327 95l11 -82q-252 -57 -353 -141q-117 -102 -196 -283q200 152 411 152zM344 123q104 0 197.5 91t93.5 194q0 57 -42 89.5 t-107.5 32.5t-181.5 -44t-126 -99q-6 -31 -6 -57q0 -90 50 -148.5t122 -58.5z" />
<glyph unicode="7" horiz-adv-x="636" d="M762 995q37 -29 37 -69.5t-67.5 -92t-134.5 -109.5t-145.5 -144t-138.5 -170q-139 -201 -151 -392l-150 -14q4 158 131 406q61 125 174 251.5t256 217.5q-205 -2 -520 -84l-24 131q47 20 271 55t331.5 34.5t130.5 -20.5z" />
<glyph unicode="8" horiz-adv-x="892" d="M385 600q-92 80 -92 154q0 102 106.5 177t240.5 75t209 -52.5t75 -136.5q0 -141 -240 -215q117 -47 117 -156q0 -168 -180.5 -298t-356.5 -130q-127 0 -201.5 66t-74.5 176.5t109.5 204.5t287.5 135zM580 659q72 20 114.5 66.5t42.5 105.5q0 82 -108 82q-66 0 -109 -33.5 t-43 -86.5q1 -87 103 -134zM471 545q-129 -29 -216 -100.5t-87 -146.5t55.5 -124t144.5 -49t173 83t84 175q0 55 -38 101.5t-116 60.5z" />
<glyph unicode="9" horiz-adv-x="747" d="M231 377q-80 0 -132 48t-52 126q0 111 90 222.5t214 179t227 67.5q270 0 270 -238q0 -158 -78 -305t-197.5 -247.5t-262 -160t-271.5 -59.5h-19l-10 82q295 68 414 158q55 41 116.5 112.5t102.5 165.5q-201 -151 -412 -151zM537 922q-109 0 -218.5 -90.5t-109.5 -190.5 q0 -57 42 -90t107 -33q113 0 218.5 76t105.5 184q0 63 -42 103.5t-103 40.5z" />
<glyph unicode=":" horiz-adv-x="237" d="M33 432q0 35 23.5 58.5t57 23.5t57.5 -23.5t24 -57.5t-24 -57.5t-58.5 -23.5t-57 22.5t-22.5 57.5zM-37 80q0 35 23.5 58.5t57.5 23.5t57.5 -23.5t23.5 -57.5t-23.5 -57.5t-58.5 -23.5t-57.5 22.5t-22.5 57.5z" />
<glyph unicode=";" horiz-adv-x="237" d="M33 432q0 35 23.5 58.5t57 23.5t57.5 -23.5t24 -57.5t-24 -57.5t-58.5 -23.5t-57 22.5t-22.5 57.5zM67.5 156q38.5 0 65.5 -23.5t27 -62.5q0 -90 -156 -203l-45 65q82 66 84 70q-57 18 -57 62.5t21.5 68t60 23.5z" />
<glyph unicode="&#x3c;" horiz-adv-x="507" d="M475 109q-43 14 -356 346l-103 110q399 350 449 375l47 -55q-295 -264 -334 -314q33 -53 114 -141t146 -149l64 -62z" />
<glyph unicode="=" horiz-adv-x="686" d="M643 686l8 -96l-481 -47l-6 110q117 35 280.5 35t198.5 -2zM182 340l88 -2q166 0 398 53l-9 94l-483 -32z" />
<glyph unicode="&#x3e;" horiz-adv-x="456" d="M287 571l-199 303l66 111q160 -201 297 -407l-375 -478l-66 47q16 59 211 332z" />
<glyph unicode="?" horiz-adv-x="862" d="M487 1238q127 60 230.5 60t166 -54t62.5 -142q0 -145 -184 -301l-133 -113q-203 -172 -275 -315q-14 -29 -30 -54l-78 35q41 145 334 445q98 100 126.5 142t28.5 87q0 96 -98 96q-125 0 -236.5 -81.5t-156.5 -241.5l-78 10q0 133 97 250t224 177zM150.5 155.5 q27.5 24.5 67.5 24.5t62.5 -19.5t22.5 -55t-27.5 -62.5t-68.5 -27q-84 0 -84 76q0 39 27.5 63.5z" />
<glyph unicode="@" horiz-adv-x="1007" d="M739 1071q123 0 196 -69.5t73 -202.5t-112 -323.5t-289 -332t-327.5 -141.5t-215 79t-64.5 234.5t110.5 337t284.5 300t344 118.5zM748 424q104 188 104 346q0 106 -53.5 167.5t-151.5 61.5t-211.5 -97t-189.5 -245.5t-76 -274.5t53 -198.5t152 -72.5q141 0 293 190 q-20 -4 -27 -4q-74 0 -74 86q0 35 19 94l-45 -51q-115 -129 -215 -129q-94 0 -95 113q0 147 142.5 274t306.5 131l2 -45l-51 -12q-115 -29 -201 -112t-86 -165t57.5 -82t139.5 86t137 205l53 -35q-2 -6 -22 -53q-55 -131 -56 -166q0 -45 43 -45q13 0 52 33z" />
<glyph unicode="A" horiz-adv-x="1617" d="M1528 610l-10 -123q-47 4 -101.5 4.5t-91.5 -2.5q-29 -225 -37 -489h-143q-12 53 -12 141t5 152.5t13 128t8 74.5q-29 2 -135 2t-147 -4q-238 -319 -438.5 -484.5t-401.5 -165.5q-98 0 -165 59.5t-67 157.5q0 186 284 340t734 207q53 82 198.5 253t287.5 298 q61 143 97 199.5t70.5 56.5t57 -26.5t22.5 -68.5t-46 -123t-95 -250t-67 -318q106 -1 180 -19zM483 182q170 162 256 307q-344 -20 -531.5 -128.5t-187.5 -231.5q0 -53 36 -84t96 -31q159 0 331 168zM1184 629q14 70 37.5 175t27.5 124q-98 -94 -137 -138.5t-137 -168.5 q35 2 85 3t83 3t41 2z" />
<glyph unicode="B" horiz-adv-x="1366" d="M1305 371l-2 -80l-113 -4q-25 -143 -79 -231.5t-181 -191t-304 -171t-296 -68.5t-180.5 48t-61.5 126q0 119 140.5 239t340 200.5t396.5 109.5q-31 51 -93.5 84t-212.5 74q-82 23 -81 74q0 31 25.5 56.5t86 61t114.5 73.5t120.5 91t111.5 110.5t45 100.5q0 72 -71 72 q-55 0 -150.5 -52.5t-187.5 -134.5l-88 -278q-92 -293 -204 -455t-212 -162q-106 0 -106.5 131.5t126.5 335t353 418.5q0 2 11 38t21 73q35 111 54 141l100 -16q0 -39 -16 -92q115 86 242.5 150.5t188 64.5t97.5 -38t37 -111t-68.5 -167t-171.5 -170q-186 -139 -317 -200 q213 -33 311 -87.5t144 -162.5h131zM309 324q143 231 191 475q-111 -121 -201 -276.5t-90 -225.5q0 -43 29.5 -43t70.5 70zM784 -115q100 68 160 152t60 158q0 35 -11 69q-307 -37 -505.5 -160.5t-198.5 -236.5q0 -49 39 -79t106 -30q166 0 350 127z" />
<glyph unicode="C" horiz-adv-x="1245" d="M1024 1294q76 0 118 -42t42 -113q0 -160 -190.5 -296t-434.5 -136q-106 0 -225 30q-78 -127 -78 -275.5t82 -239.5t240 -91q283 0 370 330h96q-23 -190 -179 -335.5t-412 -145.5q-135 0 -252 99t-117 287.5t143 411.5q-104 61 -166 152l56 61q14 -14 39 -43 q47 -55 127 -96q121 168 351 305t390 137zM553 788q178 0 313 84t135 197q0 39 -27.5 62.5t-70.5 23.5q-125 0 -278.5 -99.5t-243.5 -238.5q74 -29 172 -29z" />
<glyph unicode="D" horiz-adv-x="1400" d="M477 1307q356 0 609 -211t253 -494t-172 -446.5t-436 -159.5q-141 2 -225 2h-96q-59 0 -60 45q0 16 35 84q115 229 174 469q-211 0 -395 116.5t-184 265t139 239t358 90.5zM469 1223q-135 0 -213 -57.5t-78 -169t107.5 -198.5t287.5 -110q63 268 74 346l123 -12 q0 -127 -53 -336q16 0 190 21l11 -68q-41 -14 -228 -43q-80 -258 -166 -446q205 -16 341 -16.5t216 101t80 273.5q0 297 -202.5 506t-489.5 209z" />
<glyph unicode="E" horiz-adv-x="1370" d="M1309 1176q0 -102 -97.5 -182.5t-223.5 -117t-243 -36.5q-31 0 -45 2v69q4 0 119 19.5t194 69t79 110.5q0 74 -111 74q-150 0 -283 -102.5t-133 -215t140 -145.5q31 -8 41 -16.5t10 -29t-19.5 -33.5t-89.5 -38q-377 -129 -377 -401q0 -55 21 -94q125 160 323.5 260 t382.5 100q96 0 153.5 -42t57.5 -116q0 -115 -106.5 -229.5t-275.5 -187t-335.5 -72.5t-263.5 61q-2 -2 -18 -30q-41 -82 -70 -115l-67 29q14 57 84 174q-94 106 -94.5 238t107 252t300.5 198q-96 80 -96 166q0 117 122.5 238.5t300 197.5t332.5 76q82 0 131.5 -36t49.5 -95 zM879 346q-121 0 -282 -92t-261 -219q82 -92 232.5 -92t295 97t144.5 210q0 45 -35 70.5t-94 25.5z" />
<glyph unicode="F" horiz-adv-x="1562" d="M1012 1272l485 -15q37 0 93.5 17.5t74.5 17.5t29.5 -11t11.5 -28q0 -43 -39 -72.5t-102 -41.5q-119 -27 -211 -27q-125 -86 -244 -496q203 0 252 -6l-4 -96q-31 -2 -92 -2l-187 6q-115 -350 -309.5 -557t-411.5 -207q-133 0 -215 80t-82 211q0 211 252 384t621 183 q125 393 293 500l-330 12q-207 0 -308.5 -53t-101.5 -141q0 -47 39 -79t78 -32t58.5 3t49 14.5t42.5 15.5q43 14 104 45l43 -53q-156 -156 -340 -156q-82 0 -135 51.5t-53 128.5q0 170 174 287t465 117zM725 127q111 172 176 385q-254 -20 -447.5 -161.5t-193.5 -303.5 q0 -63 44 -104t116 -41t155.5 60.5t149.5 164.5z" />
<glyph unicode="G" horiz-adv-x="1390" d="M1075 -16l-31 -70q-201 35 -231 37q-100 -272 -286.5 -430t-417.5 -158q-125 0 -209 67.5t-84 168.5q0 176 242.5 309t588.5 133q47 0 72 -2q37 78 59 166q-131 -88 -279.5 -88t-247.5 105.5t-99 278.5t115.5 364.5t305 316.5t385.5 125q115 0 217.5 -40t153.5 -96 l-110 -133q-84 66 -119 88q-90 61 -193 62q-211 0 -391 -204t-180 -443q0 -131 73.5 -207t193.5 -76t216 57q119 313 221 314q59 0 59.5 -57.5t-43.5 -132t-114 -134.5q-84 -225 -98 -270q143 -16 231 -51zM209 -498q139 0 275.5 129t205.5 324q-276 0 -467.5 -93 t-191.5 -227q0 -61 48 -97t130 -36z" />
<glyph unicode="H" horiz-adv-x="1689" d="M1536 1305l92 -45q-137 -268 -285 -691q94 0 130 -8l-9 -117q-43 -14 -168 -14q-43 -119 -51 -192.5t-13 -143t-7 -94.5h-115q-10 35 -10 72q0 127 67 358q-123 0 -372 -29q-10 -33 -51.5 -122t-81 -154.5t-107.5 -143t-141 -131.5q-211 -152 -410 -151q-82 0 -135 51 t-53 129q0 197 226 357.5t628 257.5q152 442 426 630q-297 -4 -489.5 -100t-192.5 -246q0 -47 14 -80.5t68 -105.5l-70 -66q-90 57 -137 139.5t-47 157.5q0 127 135 234.5t335.5 166t407.5 58.5q104 0 144.5 -15.5t40.5 -57.5t-60 -79q-256 -160 -411 -606q121 20 374 45 q98 287 158.5 425.5t169.5 310.5zM345 -93.5q101 66.5 170 174t118 296.5q-272 -45 -439 -159t-167 -257q0 -57 33.5 -89t108.5 -32t176 66.5z" />
<glyph unicode="I" horiz-adv-x="1200" d="M1206 1262q35 -10 35 -37q0 -8 -24 -37q-94 -121 -132 -180.5t-90.5 -198.5t-94.5 -267t-42 -130q-84 -188 -231.5 -297t-309.5 -109q-115 0 -185.5 56.5t-70.5 150.5q0 147 190.5 270t381.5 123l8 -67q-152 -31 -261.5 -113t-109.5 -178q0 -61 36 -100t91 -39 q104 0 180 97t155 345t143.5 362.5t162.5 192.5q-29 2 -63 2q-176 0 -343 -55.5t-167 -147.5q0 -57 51 -108l-45 -56q-137 96 -137 224q0 84 72.5 145t195.5 94q236 63 528 64q64 0 76 -6z" />
<glyph unicode="J" horiz-adv-x="1437" d="M1176 1274q125 0 203.5 -15.5t78.5 -62.5q0 -41 -65 -80q-162 -98 -288 -318t-259 -651q121 0 182 -10l-12 -82q-57 10 -102.5 10.5t-100.5 -10.5q-63 -174 -134 -282.5t-181.5 -202.5t-245.5 -155.5t-230.5 -61.5t-150.5 52t-55 138q0 131 122.5 260t324.5 217.5 t425 110.5q4 8 64 195q94 307 211.5 488t283.5 300q-35 4 -92 4q-354 0 -581.5 -129t-227.5 -291q0 -104 62.5 -193t177.5 -183l-49 -68q-334 180 -334 455q0 160 136 290.5t358.5 202.5t478.5 72zM339 -442.5q103 65.5 194.5 192.5t128.5 291q-266 -27 -451.5 -153 t-185.5 -281q0 -53 30.5 -84t85.5 -31q95 0 198 65.5z" />
<glyph unicode="K" horiz-adv-x="1632" d="M1688 1229l129 -64q-131 -213 -310.5 -378.5t-476.5 -329.5q57 -297 141 -476.5t220 -199.5v-94q-16 -2 -43 -2q-137 0 -265.5 190.5t-230.5 562.5q-88 -276 -268.5 -437t-374.5 -161q-100 0 -164.5 54.5t-64.5 149.5t86 197.5t235 172.5l47 -74q-184 -131 -184 -246 q0 -55 37 -89t96 -34q139 0 240.5 118t181.5 413q100 371 205 485q47 53 137 117q-141 -4 -288.5 -48t-258.5 -131t-111 -194q0 -137 125 -219l-41 -63q-115 55 -180 143t-65 182q0 129 141 244t347 178.5t405 63.5q123 0 122 -54q0 -35 -71 -88q-131 -98 -202 -255.5 t-116 -368.5q233 86 447.5 285.5t372.5 449.5z" />
<glyph unicode="L" horiz-adv-x="1189" d="M358 190l426 -12q90 0 174 60l56 -74q-41 -47 -65.5 -70.5t-73 -46t-107.5 -22.5l-383 16q-256 0 -250 -6q-76 2 -76 67q6 41 55.5 136.5t133.5 345.5q-127 0 -228 75l43 76q88 -57 216 -57q119 291 301 436.5t381 145.5q94 0 151 -48.5t57 -128.5q0 -172 -226 -322.5 t-515 -168.5q-94 -299 -211 -408q51 6 141 6zM848 1149q-127 0 -235.5 -129t-155.5 -334q205 14 358.5 123t153.5 227q0 47 -35 80t-86 33z" />
<glyph unicode="M" horiz-adv-x="1652" d="M1673 -211l-24 -76q-53 -4 -80 -4q-123 0 -200 103.5t-77 269.5q0 100 46 379.5t108 511.5q12 51 12 67.5t-14 16.5t-91 -152.5t-183.5 -375t-122 -254t-24.5 -51t-37 -70t-52 -88.5q-68 -102 -107 -103q-27 0 -58.5 14.5t-41.5 30.5q-23 35 -22 217q0 381 61 727 q20 115 20 121q0 20 -16 21q-33 0 -104 -205l-60 -170q-131 -371 -265 -578t-308 -291l-53 113q199 147 306 301t234 496l70 186q72 195 125 278t119 83q109 0 108 -131q0 -10 -39 -415t-39 -534q0 -37 13 -39q10 0 22 21q166 276 318 602q18 41 63 141.5t88 178t65.5 95 t71.5 17.5t85 -36t36 -85t-14 -112q-160 -780 -160 -933t49 -209t172 -79z" />
<glyph unicode="N" horiz-adv-x="1482" d="M1384 1251l119 -14q-37 -160 -99.5 -374t-113.5 -346t-111.5 -262t-128 -205t-131 -75t-93 47.5t-29.5 167t34.5 503.5t35.5 418t-17 34q-23 0 -53.5 -62.5t-46.5 -95.5q-43 -96 -56 -135q-115 -258 -205 -426t-206 -311q-41 -49 -117 -100.5t-141 -77.5l-45 120 q170 72 307 249t283.5 494.5t209.5 428.5q72 117 146 117q47 0 73.5 -33t26.5 -85t-36 -431t-36 -485.5t9.5 -138.5t31.5 -32q29 0 62 62q112 219 327 1048z" />
<glyph unicode="O" horiz-adv-x="1421" d="M1442 1008v-99q-92 -53 -340 -145q-111 -276 -350.5 -514t-438.5 -238q-113 0 -182.5 80t-69.5 220.5t94.5 338t248 370.5t313.5 255q66 43 205 43q104 0 170.5 -81t66.5 -190.5t-16 -164.5q156 51 299 125zM629 1079q-68 -70 -68 -134t65.5 -102t165 -38t173.5 18 q12 61 12 119q0 203 -174 203q-80 0 -174 -66zM655 305q201 199 281 414q-51 -10 -131 -10q-344 0 -389 153q-172 -240 -172 -471q0 -92 44 -147.5t130 -55.5q120 0 237 117z" />
<glyph unicode="P" horiz-adv-x="1347" d="M968.5 1266.5q61.5 25.5 144.5 25.5t128 -57t45 -164q0 -190 -123 -409.5t-307 -368t-348 -148.5q-41 0 -94 5q-100 -213 -182 -322t-164 -109q-51 0 -80 37t-29 103q0 211 194.5 564t428.5 566q33 135 32.5 197.5t-4.5 95.5l148 25q0 -14 -19 -181q168 115 229.5 140.5z M270 297l58 -29q129 252 217 566q-188 -236 -309 -479.5t-121 -374.5q0 -39 24 -39q18 0 65.5 76.5t80.5 156.5q-27 12 -52 37zM457 240l39 -2q199 0 372 208q98 121 167 277t69 264q0 59 -32 94t-87 35q-100 0 -266 -110q-37 -277 -262 -766z" />
<glyph unicode="Q" horiz-adv-x="1361" d="M1280 227l123 -69q-145 -213 -316 -213q-117 0 -198 80q-68 66 -160 192q-229 -215 -416 -215q-113 0 -182.5 80t-69.5 213t79 311t200 333t279.5 262.5t302.5 107.5q104 0 170.5 -81t66.5 -223.5t-95 -335t-247 -362.5q47 -66 78 -105.5t87 -84.5t110.5 -45t116 50 t71.5 105zM643 1116q-145 -104 -257 -322.5t-112 -390.5q0 -119 54 -178q39 135 108.5 208t153.5 73q31 0 49 -6q45 -12 119 -113q90 121 148.5 267.5t58.5 256t-46.5 180t-128 70.5t-147.5 -45zM451 166l16 2q104 10 205 127q-57 70 -111 70q-29 0 -46 -6.5t-50 -51.5 t-64 -133q30 -8 50 -8z" />
<glyph unicode="R" horiz-adv-x="1300" d="M1024 -133l10 -96q-57 -10 -100 -11q-96 0 -184 128t-138.5 300t-62.5 332q-102 -266 -193.5 -386t-187.5 -120q-49 0 -78 40t-29 106q0 152 140.5 385t328.5 383q4 12 36 149t38 152l119 10q0 -35 -18 -145q276 211 454 211q84 0 133 -46.5t49 -123.5 q0 -195 -196.5 -392.5t-419.5 -232.5q16 -297 103 -465t196 -178zM428 551q55 147 76 235q-113 -104 -208 -278t-95 -258q0 -43 35 -43q61 0 192 344zM567 580q217 0 389 151.5t172 300.5q0 55 -27.5 86t-87 31t-172 -66.5t-161.5 -109.5q-64 -252 -113 -393z" />
<glyph unicode="S" horiz-adv-x="1284" d="M1077 371l146 2v-84q-25 4 -57.5 4t-73.5 -4q0 -158 -152 -320t-366 -263t-398 -101q-96 0 -156.5 49t-60.5 129q0 119 157.5 248t368.5 213t381 98q-20 31 -63 53.5t-176 70.5t-188.5 106.5t-55.5 165t114.5 243.5t271.5 230.5t275 93.5q53 0 88 -38t35 -93 q0 -90 -108.5 -226.5t-241.5 -208.5l-49 70q80 41 140.5 128t60.5 150.5t-68 63.5q-96 0 -220 -120t-124 -224q0 -72 37 -113t186.5 -101.5t213 -106t83.5 -115.5zM164 -164q0 -98 160 -98q88 0 228 64.5t247.5 180t107.5 236.5q0 14 -6 43q-281 -27 -509 -158t-228 -268z " />
<glyph unicode="T" horiz-adv-x="1167" d="M920 1137l-293 6q-449 0 -449 -197q0 -51 38 -83t114 -32t198 70l31 -53q-63 -68 -143 -107t-160 -39t-137.5 53.5t-57.5 133.5q0 162 175.5 282.5t474.5 120.5q25 0 176 -8t239 -8t162 27q29 8 35 8q29 0 29 -37q0 -53 -93.5 -96t-214.5 -43q-135 -131 -236 -458 t-241.5 -498t-333.5 -171q-76 0 -143 49l47 78q25 -12 56 -22l28 -4q10 -2 31 -3q102 0 183 98.5t170 372t139.5 362.5t175.5 198z" />
<glyph unicode="U" horiz-adv-x="1435" d="M1153 160l66 -54q-25 -70 -84.5 -128t-128.5 -58q-94 0 -153.5 92t-78.5 267q-94 -102 -235.5 -193.5t-248 -91.5t-168 71.5t-61.5 184.5q0 256 250 608t506 502l55 -78q-233 -174 -427.5 -458.5t-194.5 -499.5q0 -80 38 -124t106.5 -44t191.5 79.5t184 149.5 q10 199 95 403.5t203 334.5t220 130q86 0 86 -104.5t-153.5 -349t-305.5 -387.5q-4 -33 -4 -54q0 -90 36 -187t95 -97q52 0 111 86zM1184 1061q-68 0 -150 -159t-104 -337q127 152 203.5 280t76.5 185q1 31 -26 31z" />
<glyph unicode="V" horiz-adv-x="1163" d="M1124 1253l60 -88q-211 -139 -455 -443t-381 -628q-29 -68 -50.5 -90t-61 -22t-71.5 27.5t-32 84t15.5 215t15.5 223.5q0 461 -103 744l150 41q117 -203 117 -731q0 -172 -6 -275q327 672 802 942z" />
<glyph unicode="W" horiz-adv-x="1615" d="M1473 1270l151 20q12 -55 12 -121q0 -164 -76.5 -372.5t-185 -379.5t-231.5 -289t-207 -118q-180 0 -180 283q0 135 96 561q-238 -336 -438.5 -589t-242.5 -253t-76 33t-34 67.5t13 69.5q88 264 115.5 495.5t27.5 415t-2 226.5h160q12 -66 12 -204t-34 -385t-83 -458 q154 197 635 865q55 80 89 105.5t82 25.5t48 -47q0 -18 -51 -176t-98 -391.5t-47 -354.5t61 -121q43 0 107 62q158 152 268.5 417t110.5 545q0 45 -2 68z" />
<glyph unicode="X" horiz-adv-x="1318" d="M668 707q102 100 585 604l86 -90q-96 -123 -349 -372t-271 -267q68 -145 136.5 -252t119.5 -182.5t61 -92.5l-110 -104q-152 156 -326 516q-70 -66 -166 -160t-143 -139q-113 -109 -244 -197l-67 92q6 6 210.5 181.5t356.5 343.5q-141 379 -189 635l156 28 q99 -415 154 -544z" />
<glyph unicode="Y" horiz-adv-x="1351" d="M655 18l62 -2q12 43 56 164t63 160q-213 -201 -330 -242q-63 -23 -129 -22q-109 0 -168 71.5t-59 200.5q0 184 169.5 492.5t387.5 482.5l81 -76q-455 -489 -454 -817q0 -190 149.5 -190t290.5 163.5t293 507.5q61 141 94 186.5t63.5 45.5t48 -18.5t17.5 -49.5 q0 -131 -188 -389q-131 -270 -264 -672q96 -6 204 -47l-20 -69l-217 30q-121 -295 -292 -441t-409 -146q-123 0 -205.5 66.5t-82.5 166.5q0 184 247.5 314t591.5 130zM197 -518q166 0 293.5 134t189.5 314q-274 0 -460.5 -93t-186.5 -226q0 -57 46 -93t118 -36z" />
<glyph unicode="Z" horiz-adv-x="1347" d="M457 981l10 -92q0 -16 -11.5 -29.5t-25.5 -13.5q-39 0 -80 67.5t-41 126.5q0 129 151.5 174.5t426 45.5t337 -17.5t62.5 -97.5q0 -35 -33.5 -78t-133 -135t-338 -291t-363.5 -328t-160 -180q86 -4 111 -4q276 0 399 30.5t123 106.5l-10 92q0 16 11 29.5t26 13.5 q39 0 79.5 -67.5t40.5 -126.5q0 -129 -151.5 -174t-426 -45t-337 17.5t-62.5 96.5q0 55 159 207t402.5 357.5t331.5 291.5t136 156q-86 4 -111 4q-276 0 -399 -30.5t-123 -106.5z" />
<glyph unicode="[" horiz-adv-x="727" d="M797 1294l-224 11q-117 -313 -251 -759t-191 -724q45 6 264 28l13 -118l-316 -45q-14 -6 -31 -6q-70 0 -69 47q63 342 202.5 807.5t264.5 818.5q27 76 110 76q31 0 118 -12.5t134 -16.5z" />
<glyph unicode="\" horiz-adv-x="538" d="M301 -193q-57 496 -207 1016q-55 195 -178 590l80 19q160 -492 243 -834t140 -776z" />
<glyph unicode="]" horiz-adv-x="630" d="M526 1341l-229 -10l-27 105q307 31 332 30q70 0 70 -55q0 -12 -2 -20q-74 -350 -196 -808t-251 -800q-29 -47 -96 -47l-287 26v119l297 -22q98 279 214 725t175 757z" />
<glyph unicode="^" horiz-adv-x="847" d="M-4 403q14 43 348 355l109 104q350 -399 374 -448l-55 -47q-264 295 -313 333q-53 -33 -141.5 -113.5t-149.5 -144.5l-62 -65z" />
<glyph unicode="_" horiz-adv-x="921" d="M944 -231l43 -99h-1007l-31 99h995z" />
<glyph unicode="`" horiz-adv-x="401" d="M334 807l-350 115l139 82l270 -160z" />
<glyph unicode="a" horiz-adv-x="960" d="M899 207l47 -35q-29 -61 -105.5 -116.5t-140.5 -55.5q-121 0 -120 127q0 59 30 141l-75 -78q-111 -113 -192 -151.5t-159 -38.5t-117.5 44t-39.5 122q0 143 110.5 283.5t282.5 228.5t344 90l4 -68l-86 -18q-186 -41 -328.5 -164t-142.5 -244.5t98 -121.5q92 0 227.5 129 t225.5 303l86 -52q-127 -256 -127 -325q0 -29 19.5 -48.5t39 -19.5t25.5 2t12 5.5t15.5 9.5t16.5 12t23.5 18.5t26.5 20.5z" />
<glyph unicode="b" horiz-adv-x="882" d="M554 701.5q75 37.5 141.5 37.5t110.5 -46t44 -120q0 -190 -160 -400t-344 -210q-55 0 -104 21l49 90q33 -8 51 -8q125 0 227.5 139t102.5 274q0 43 -28 71t-71 28q-94 0 -220 -152t-220 -395l-125 51q61 313 245.5 763.5t307.5 637.5l105 -37q-135 -252 -288 -624.5 t-179 -506.5q84 147 182 248t173 138.5z" />
<glyph unicode="c" horiz-adv-x="747" d="M575 291l50 -41q-49 -113 -158 -180.5t-210 -67.5t-167.5 63.5t-66.5 174t96 239.5t248.5 213t300.5 84q20 0 61 -4l-6 -80q-225 -10 -373.5 -137t-148.5 -270q0 -59 36.5 -96t96.5 -37q94 0 241 139z" />
<glyph unicode="d" horiz-adv-x="1144" d="M1176 1513l104 -36l-29 -54q-225 -420 -383 -813q-104 -258 -104 -387q0 -33 16.5 -52t52 -19t82.5 47l37 -35q-27 -59 -92 -109.5t-127 -50.5q-119 0 -119 139q0 82 45 252q-242 -422 -473 -422q-80 0 -127 49.5t-47 133.5q0 133 106.5 276t262.5 234.5t291 91.5l6 -72 q-176 -23 -328.5 -153t-152.5 -265q0 -57 30.5 -91t79.5 -34q100 0 262 215q59 78 136 227.5t123 241t90.5 178.5t116 229t141.5 279z" />
<glyph unicode="e" horiz-adv-x="780" d="M594 242l47 -37q-63 -88 -174 -146.5t-215.5 -58.5t-168 61.5t-63.5 161.5q0 188 200 370.5t405 182.5q135 0 135 -106q0 -111 -142.5 -223.5t-400.5 -204.5q18 -47 57 -74t80 -27q88 1 240 101zM207 303q166 57 284.5 143t118.5 158q0 27 -20.5 47.5t-46.5 20.5 q-96 0 -208 -120t-128 -249z" />
<glyph unicode="f" horiz-adv-x="698" d="M459 805l-66 -248l266 31l-59 -96l-229 -31q-27 -111 -90 -334q-137 -483 -138 -612l-131 -68q0 176 152 680q78 252 96 324q-72 -18 -131 -19q-117 0 -117 92q0 51 78 123q113 104 268 184q121 412 174 517q72 141 132 180q88 55 182 55t133 -53t35 -125 q-10 -258 -555 -600zM786 1409q-115 0 -170 -111q-43 -86 -75.5 -206.5t-46.5 -165.5q113 70 241.5 188.5t132.5 206.5t-82 88zM289 547l45 180q-78 -33 -122 -67.5t-44 -59.5q0 -53 121 -53z" />
<glyph unicode="g" horiz-adv-x="919" d="M903 74l2 -49q-20 -12 -186 -74q-66 -391 -193 -565t-311 -174q-86 0 -137 55t-51 143q0 176 161.5 328.5t432.5 241.5q31 137 110 387q-137 -209 -248.5 -283t-202 -74t-136.5 49.5t-46 130.5q0 135 113 275.5t284 229.5t330 89l17 -71q-227 -25 -390 -160t-163 -260 q0 -53 32.5 -88t79.5 -35q70 0 211.5 147.5t198.5 251.5l76 -43q-113 -301 -156 -508zM608 -82q-178 -82 -294.5 -196.5t-116.5 -208.5q0 -49 28.5 -80t71.5 -31q86 0 170 121t141 395z" />
<glyph unicode="h" horiz-adv-x="886" d="M811 150l47 -39q-86 -143 -223 -144q-119 0 -119 117q0 68 58.5 216.5t58.5 195.5q0 59 -76 59t-206 -163t-218 -378l-121 43q106 535 557 1432l101 -33q-227 -455 -326 -723q-102 -279 -154 -461q158 260 271.5 360.5t197.5 100.5q152 0 152 -108q0 -68 -76 -242 t-76 -231.5t56 -57.5q28 1 96 56z" />
<glyph unicode="i" horiz-adv-x="548" d="M438 868q-115 0 -114 93q0 51 28.5 85.5t73.5 34.5t73.5 -26.5t28.5 -69.5t-24.5 -80t-65.5 -37zM412 264l41 -35q-49 -94 -130 -160.5t-147 -66.5q-115 0 -115 160q0 199 164 518q37 70 43 82l88 -53q-43 -78 -105.5 -248t-62.5 -218t20.5 -68.5t49.5 -20.5 q56 -1 154 110z" />
<glyph unicode="j" horiz-adv-x="825" d="M647 289q4 -37 4 -60q-109 -27 -196 -61q-76 -365 -197 -551t-307 -186q-92 0 -144.5 55t-52.5 152q0 174 151.5 316t440.5 245q92 350 221 688q39 102 43 123l103 -33q-57 -127 -140.5 -375t-99.5 -360zM338 119q-256 -127 -324 -201q-88 -96 -88 -201q0 -45 27 -71.5 t72 -26.5q92 0 177 140.5t136 359.5zM844.5 1178q-21.5 -39 -69.5 -39t-82 26.5t-34 74.5t33 86t75 38t70.5 -29.5t28.5 -73.5t-21.5 -83z" />
<glyph unicode="k" horiz-adv-x="927" d="M848 209l51 -45q-119 -195 -252 -195q-82 0 -168 121t-86 199q0 49 148 98q55 18 101 56t46 79t-22.5 62.5t-57.5 21.5q-225 -20 -471 -606l-125 43q0 88 238.5 712.5t339.5 755.5l100 -36q-276 -481 -463 -1119q160 240 274.5 320t219.5 80q63 0 101 -39t38 -99.5 t-29.5 -109.5t-85.5 -86q-80 -53 -196 -105q18 -96 63 -145t103 -49q31 0 133 86z" />
<glyph unicode="l" horiz-adv-x="555" d="M340 197l43 -35q-70 -109 -120 -157t-111.5 -48t-100.5 49t-39 123q0 143 188.5 617.5t387.5 834.5l90 -49q-201 -389 -362.5 -773t-161.5 -552q0 -96 71 -96q58 0 115 86z" />
<glyph unicode="m" horiz-adv-x="1478" d="M1407 266l43 -41q-117 -209 -268 -209q-61 0 -95 34t-34 90.5t67.5 193.5t71.5 209q2 33 -19.5 53t-58.5 20t-75 -17t-73.5 -56t-65.5 -76t-65.5 -104.5t-60.5 -112.5q-43 -84 -123 -252l-123 43q0 6 68 231.5t68 268.5t-20.5 62.5t-51.5 19.5q-92 0 -255 -229.5 t-208 -391.5l-117 39q10 109 96.5 390.5t145.5 383.5l92 -33q-63 -141 -88 -238.5t-43 -207.5q176 252 295 353.5t215 101.5q104 0 104 -105q0 -41 -35.5 -162t-56.5 -190q283 455 506 454q55 0 88 -33.5t33 -100t-77 -220t-77 -193.5t16.5 -58.5t41.5 -18.5q53 0 139 102z " />
<glyph unicode="n" horiz-adv-x="950" d="M879 248l43 -33q-45 -90 -124 -151.5t-142.5 -61.5t-100.5 37t-37 92t70.5 193.5t70.5 203.5q0 29 -23.5 52.5t-55.5 23.5q-104 0 -211 -158.5t-238 -457.5l-123 43q39 238 112 464t134 324l84 -26q-57 -145 -145 -502q283 483 520 483q51 0 84.5 -34.5t33.5 -82t-12 -85 t-76.5 -176t-64.5 -173.5t20.5 -54t39 -19t30.5 6t27.5 18t28 22.5t30 28t25.5 23.5z" />
<glyph unicode="o" horiz-adv-x="677" d="M604 608q53 -88 53 -194q0 -166 -114.5 -296t-270.5 -130q-119 0 -185.5 68.5t-66.5 189.5q0 195 152 349.5t340 154.5q35 0 49 -2l6 -68q-164 0 -272.5 -94t-108.5 -242q0 -88 43 -142.5t126 -54.5t132.5 74t49.5 173.5t-39 180.5z" />
<glyph unicode="p" horiz-adv-x="1013" d="M596 695q115 85 201 85t133 -52t47 -132q0 -221 -159 -408.5t-357 -187.5q-88 0 -139 31l49 88q106 -14 133 -15q111 0 207 129t96 265q0 51 -29.5 84.5t-77.5 33.5q-113 0 -255 -198.5t-266 -492.5t-216 -625l-123 43q4 12 77 211.5t142 396.5q193 541 193 592 q0 131 -53 237l102 51q63 -88 63.5 -185t-38.5 -269q155 233 270 318z" />
<glyph unicode="q" horiz-adv-x="864" d="M336 -713l-111 45q0 139 408 1039q-156 -209 -261.5 -286t-187.5 -77q-160 0 -159 178q0 147 101 286.5t269 226.5t346 87l19 -71q-193 -4 -372 -127t-179 -293q0 -109 92 -109q68 0 148.5 77t172 188.5t146.5 152.5l80 -45q-453 -910 -512 -1272z" />
<glyph unicode="r" horiz-adv-x="727" d="M594 725q51 0 84 -35t33 -90q0 -111 -127 -233l-49 39q29 63 28 92q0 55 -61.5 55t-116.5 -78t-130 -240.5t-114 -230.5l-116 51q113 256 129 301q55 160 55 406l115 31q-6 -133 -18.5 -206t-59.5 -237q207 375 348 375z" />
<glyph unicode="s" horiz-adv-x="677" d="M690 801l-18 -80q-35 4 -90 4q-205 0 -205 -135q0 -29 83 -168t83 -186q0 -111 -75 -173.5t-200 -62.5q-172 0 -276 190l78 56q29 -23 61.5 -54.5t48.5 -44.5q39 -35 86 -34.5t82 34t35 84t-89 187.5t-89 192q0 100 85 153.5t223 53.5t177 -16z" />
<glyph unicode="t" horiz-adv-x="675" d="M500 229l45 -51q-51 -80 -124 -125t-146.5 -45t-116.5 42t-43 116q0 172 129 475q-104 -16 -209 -49l-15 80l-2 2q102 43 269 69q16 31 73 150q115 236 164 305l88 -35q-20 -45 -71.5 -150.5t-114.5 -238.5q92 6 145.5 6t81.5 -16v-88q-29 6 -83 6t-193 -18 q-121 -270 -121 -394q0 -47 29.5 -77.5t80 -31t134.5 67.5z" />
<glyph unicode="u" horiz-adv-x="901" d="M842 225l43 -35q-35 -86 -110 -145t-135 -59t-95 42t-35 109.5t22 173.5q-96 -152 -206.5 -237.5t-186.5 -85.5q-115 0 -114 164q0 139 94 356t137 252l98 -43q-84 -135 -127 -266.5t-43 -175.5t28 -70.5t64 -26.5q82 0 204 150.5t249 449.5l105 -47q-4 -16 -93.5 -237.5 t-89.5 -265.5t19.5 -66.5t39 -22.5t30 2t20.5 8.5t17 10.5t18 14l16 14q4 6 15.5 19.5t15.5 17.5z" />
<glyph unicode="v" horiz-adv-x="778" d="M690 733l70 -55q-272 -358 -369 -598q-33 -80 -94 -80q-39 0 -68.5 41t-39 75t-30 142.5t-45 226t-40 176t-20.5 77t-17 31.5t-14 17l133 -12q59 -145 94 -315q8 -35 28.5 -140.5t32.5 -164.5q113 217 198 353t181 226z" />
<glyph unicode="w" horiz-adv-x="1222" d="M1184 797l57 -54l-123 -149q-217 -268 -321 -533q-27 -55 -54.5 -55t-45 7t-39 52.5t-29.5 109t-14.5 108.5t-8.5 66.5t-5 45t-5 35.5t-4 24.5t-6 23.5t-6 20.5t-9.5 32t-11.5 38.5q-106 -115 -182 -270q-29 -59 -113 -238q-18 -39 -50 -38.5t-51.5 7.5t-40 48t-30.5 123 q-49 412 -94 561q59 16 119 16q10 -18 26 -112q35 -182 88 -428q100 193 222 355.5t161 162.5q45 0 62.5 -62.5t31 -209t35.5 -244.5q193 330 441 557z" />
<glyph unicode="x" horiz-adv-x="909" d="M403 342q-121 -109 -325 -354l-58 47q39 94 334 393q-78 188 -86 309l135 25q10 -14 80 -248q258 184 367 236l39 -56q-35 -29 -123 -88q-236 -160 -248 -172q111 -236 264 -405l-96 -62q-168 123 -283 375z" />
<glyph unicode="y" horiz-adv-x="923" d="M862 129l6 -53q-8 -6 -190 -74q-25 -135 -62.5 -267t-75.5 -201t-89 -136q-102 -135 -277 -135q-86 0 -137 53t-51 145q0 354 594 570l110 389q-176 -264 -317 -326q-70 -33 -146.5 -33t-123 49.5t-46.5 143.5t64.5 263t144.5 284l101 -43q-6 -6 -58 -109 q-90 -186 -90 -276t35 -121t102.5 -31t152.5 81t263 321l74 -43q-16 -68 -72.5 -245t-77.5 -272zM567 -31q-129 -59 -227 -135q-184 -139 -184 -270q0 -49 28.5 -80t71.5 -31q205 0 311 516z" />
<glyph unicode="z" horiz-adv-x="858" d="M727 152l-2 -86q-47 -2 -129 -4.5t-113.5 -3.5t-87.5 -5q-94 -6 -174 -24q-100 -23 -108 -23q-39 0 -79 47t-40 92q0 86 614 519q-27 2 -122 2t-330 -41l-13 69q139 84 521 84q80 0 113.5 -12t33.5 -55q0 -47 -53 -86q-10 -8 -34 -22.5t-85 -57.5t-123.5 -89t-159 -138.5 t-184.5 -202.5q283 45 382 45t173 -8z" />
<glyph unicode="{" horiz-adv-x="595" d="M604 1460l-14 -127q-135 -76 -172 -278q-14 -86 -29 -172q-39 -213 -164 -301q88 -82 88 -169t-72.5 -242t-72.5 -229.5t35 -136.5l-29 -110q-96 98 -96 227q0 88 59.5 250t59.5 229q0 127 -142 197q168 23 221 279q23 109 47.5 222t93 214.5t187.5 146.5z" />
<glyph unicode="|" horiz-adv-x="335" d="M137 -45l-69 -21q20 432 62 725t155 656l80 -19q-100 -264 -163 -676.5t-65 -664.5z" />
<glyph unicode="}" horiz-adv-x="624" d="M-20 -340l43 139q94 86 137 176.5t47 164t6 143.5q8 166 160 276q-53 47 -53.5 118t59 234.5t59.5 252.5t-57 161l10 139q150 -92 150 -262q0 -94 -58.5 -273t-58.5 -241q0 -113 119 -145q-96 -12 -140.5 -74.5t-61.5 -160t-39.5 -204t-101.5 -229.5t-220 -215z" />
<glyph unicode="~" horiz-adv-x="921" d="M803 682l43 -98q-174 -178 -242 -178q-43 0 -85 34.5t-70.5 77.5t-69.5 78t-74 35t-67 -21q-47 -33 -142 -118l-30 98q104 92 168.5 134t112.5 42t93 -34t72 -73q76 -109 135 -108q31 0 62 31q41 41 94 100z" />
<glyph unicode="&#xa1;" horiz-adv-x="622" d="M414 1098l96 -60q-244 -414 -391 -1015h-115q172 680 410 1075zM589.5 1283q26.5 -26 26.5 -63.5t-26.5 -64.5t-64.5 -27t-63.5 27t-25.5 64.5t25.5 63.5t63.5 26t64.5 -26z" />
<glyph unicode="&#xa2;" horiz-adv-x="870" d="M629 958l78 -20q-8 -16 -50 -102q41 4 70 4t47 -6l-6 -82h-63q-4 0 -91 -13q-100 -240 -163 -536q49 0 128.5 38t135.5 89l49 -41q-59 -102 -157.5 -162.5t-192.5 -71.5q-25 -119 -35 -176l-88 8l37 168q-109 12 -177.5 66.5t-68.5 157.5q0 170 143.5 325.5t337.5 212.5 q48 110 66 141zM329.5 544.5q-69.5 -100.5 -69.5 -199.5t107 -130q68 285 147 487q-115 -57 -184.5 -157.5z" />
<glyph unicode="&#xa3;" horiz-adv-x="1134" d="M332 8l-150 -4q-57 0 -92 14.5t-35 34t21 49.5q88 262 133 357q-139 0 -262 -78l-35 86q100 109 338 108q242 668 717 668q86 0 137 -39t51 -104q0 -109 -100.5 -196t-217 -128t-208.5 -43q-4 18 -8 68q168 27 252.5 91t84.5 140q0 47 -35.5 79t-91.5 32 q-131 0 -235 -132t-193 -442q68 -2 217.5 -2t204.5 19l43 -97q-109 -39 -506 -38q-68 -195 -180 -308q301 -20 574 -20q94 0 190 59l43 -67q-55 -74 -105 -95.5t-118 -21.5z" />
<glyph unicode="&#xa5;" horiz-adv-x="1175" d="M330 541l-318 -19l-6 66q70 10 326 24q0 129 -35 329t-66 296l121 43q47 -92 84 -302t37 -349q135 190 293 350t297 258l84 -94q-111 -84 -269.5 -238.5t-275.5 -294.5q127 0 293 -18l-12 -74q-217 16 -332 21q-61 -106 -74 -144l381 -20l-12 -74q-133 14 -395 23 q-31 -76 -109 -330l-139 39q88 219 98 293q-68 0 -268 -15l-6 74l286 12q16 109 17 129v15z" />
<glyph unicode="&#xa6;" horiz-adv-x="352" d="M211 793h-80q37 170 105 387l79 -19q-59 -151 -104 -368zM106 547h74q-39 -311 -39 -486l-69 -20q11 299 34 506z" />
<glyph unicode="&#xa7;" horiz-adv-x="1249" d="M866 1057l31 65q92 6 154.5 59.5t62.5 129.5q0 94 -126 94t-225 -83t-99 -198q0 -57 40.5 -104t155.5 -71.5t175.5 -71t60.5 -132.5q0 -127 -109.5 -264t-275.5 -186q80 -51 108.5 -92t28.5 -99q0 -121 -96.5 -223t-230.5 -154.5t-248.5 -52.5t-183.5 40t-69 120 q0 109 119 200t303 105l-18 -51q-20 -4 -70.5 -28.5t-81 -47t-56.5 -59.5t-26 -78q0 -102 135.5 -102t259.5 86t124 188q0 61 -56.5 107.5t-206.5 76.5q-205 41 -204 191q0 129 135 269t295 179q-125 45 -148 99q-10 25 -10 61q0 160 176 319.5t389 159.5q188 0 189 -145 q0 -119 -113 -213t-289 -94zM922 662q0 70 -52.5 112.5t-117.5 42.5q-121 0 -231.5 -108.5t-110.5 -227.5q0 -72 46 -110.5t122 -38.5q131 0 237.5 101.5t106.5 228.5z" />
<glyph unicode="&#xa8;" horiz-adv-x="430" d="M-8 907q0 35 23.5 58.5t57 23.5t57.5 -23.5t24 -57.5t-24 -57.5t-58.5 -23.5t-57 22.5t-22.5 57.5zM252 907q0 35 23.5 58.5t56.5 23.5t57.5 -23.5t24.5 -57.5t-23.5 -57.5t-57.5 -23.5t-57.5 22.5t-23.5 57.5z" />
<glyph unicode="&#xa9;" horiz-adv-x="995" d="M933 997.5q73 -69.5 73 -202.5t-112 -323.5t-289 -332t-327.5 -141.5t-215 79t-64.5 234.5t110.5 336.5t284.5 300t344 119q123 0 196 -69.5zM779.5 484.5q70.5 154.5 70.5 271t-53.5 178t-151.5 61.5t-212 -97t-189.5 -245.5t-75.5 -274.5t53 -199t155.5 -73t217.5 112 t185.5 266.5zM637 477l35 -28q-35 -78 -110 -125.5t-146.5 -47.5t-117.5 44.5t-46 111.5q0 135 146.5 260t308.5 125q20 0 36 -4l-4 -55l-43 -2q-127 -6 -223 -95.5t-96 -187.5q0 -39 26.5 -65.5t65.5 -26.5q68 0 168 96z" />
<glyph unicode="&#xab;" horiz-adv-x="782" d="M403 813q-203 -193 -225 -225q47 -78 170 -199l41 -39l-29 -102q-33 12 -266 260l-78 84q301 264 338 282zM729 813q-203 -193 -225 -225q47 -78 172 -199l39 -39l-29 -102q-33 12 -266 260l-78 84q301 264 338 282z" />
<glyph unicode="&#xad;" horiz-adv-x="415" d="M422 600v-96l-424 -60l-25 111q177 35 449 45z" />
<glyph unicode="&#xae;" horiz-adv-x="1013" d="M741 1071q123 0 196 -69.5t73 -202.5t-112 -323.5t-289 -332t-327.5 -141.5t-215 79t-64.5 234.5t110.5 337t284.5 300t344 118.5zM715 367q139 213 139 403q0 106 -53 167.5t-151.5 61.5t-212 -97t-189.5 -245.5t-76 -274.5t53.5 -198.5t160 -72.5t228.5 129 q-53 12 -102 91t-49 138q0 49 110 80q41 10 76 35.5t35 54.5q0 61 -53 61q-154 -14 -316 -442l-84 33q0 72 164 532h74q-57 -162 -94 -305l51 80q131 207 281 211q43 0 68.5 -27.5t25.5 -74.5q0 -78 -77 -137.5t-157 -80.5q8 -72 40 -106.5t71 -34.5q10 1 37 19z" />
<glyph unicode="&#xaf;" horiz-adv-x="342" d="M506 952v-73l-363 -13l-18 64q68 14 381 22z" />
<glyph unicode="&#xb0;" horiz-adv-x="380" d="M307 999.5q-80 -69.5 -162 -69.5q-158 0 -157 123q0 88 75.5 155.5t159.5 67.5t124 -33t40 -86q0 -88 -80 -157.5zM293 1147q0 86 -84 86q-43 0 -81 -50t-38 -124t74 -74q51 0 90 50.5t39 111.5z" />
<glyph unicode="&#xb1;" horiz-adv-x="534" d="M299 410h-96q4 141 8 194l-191 -22l-24 110q80 16 223 27q16 164 29 229l110 -24l-22 -187h199v-96l-213 -25zM530 338v-96l-489 -47l-25 110q111 23 295 27t219 6z" />
<glyph unicode="&#xb4;" horiz-adv-x="401" d="M393 922l-350 -115l-59 37l270 160z" />
<glyph unicode="&#xb5;" d="M954 252l43 -35q-35 -86 -109.5 -145.5t-135 -59.5t-95 42t-34.5 109.5t22 174.5q-109 -172 -184.5 -253t-143.5 -81q-47 0 -84 49q-12 18 -16 21q-72 -324 -90 -418l-131 -27q29 180 96.5 446.5t148.5 469.5t128 241l98 -43q-84 -135 -127 -266t-43 -175t27.5 -70.5 t64.5 -26.5q82 0 204 150.5t249 449.5l104 -47q-4 -16 -93 -237.5t-89 -265.5t19.5 -66.5t39 -22.5t29.5 2t20.5 8l17.5 10t17 15l15 16q6 4 17 17.5t15 17.5z" />
<glyph unicode="&#xb7;" horiz-adv-x="147" d="M-20 663.5q0 38.5 27.5 66.5t66.5 28t66.5 -28t27.5 -66.5t-27.5 -66.5t-66.5 -28t-66.5 28t-27.5 66.5z" />
<glyph unicode="&#xb8;" horiz-adv-x="366" d="M141 -113q49 27 116 27t100.5 -26.5t33.5 -67.5q0 -76 -108.5 -149.5t-235.5 -73.5q-23 0 -49 6l2 49q104 0 176 45t72 94q0 16 -15.5 28.5t-37 12.5t-64.5 -29q-49 -27 -63.5 -26.5t-24.5 8.5t-10 22q0 25 73 170l23 48h78z" />
<glyph unicode="&#xbb;" horiz-adv-x="802" d="M399 592l-268 -342l-53 72q12 45 141 206l43 54q-31 49 -77 104t-64 88l67 109q113 -144 211 -291zM768 592l-268 -342l-54 72q12 45 142 206l43 54q-31 49 -77 104t-65 88l68 109q113 -144 211 -291z" />
<glyph unicode="&#xbf;" horiz-adv-x="903" d="M602 76.5q-127 -60.5 -230.5 -60.5t-166 54.5t-62.5 142.5q0 145 185 301l133 113q203 172 274 315q14 29 31 53l78 -34q-41 -145 -334 -445q-98 -100 -127 -142t-29 -87q0 -96 99 -97q125 0 236.5 82t156.5 242l78 -10q0 -133 -97.5 -250t-224.5 -177.5zM939 1159.5 q-28 -24.5 -68 -24.5t-62.5 19.5t-22.5 55t28 62t69 26.5q84 0 84 -75q0 -39 -28 -63.5z" />
<glyph unicode="&#xc0;" horiz-adv-x="1658" d="M1548 610l-10 -123q-47 4 -101.5 4.5t-90.5 -2.5q-29 -225 -37 -489h-144q-12 53 -12 141t5 152.5t13.5 128t8.5 74.5q-29 2 -135.5 2t-147.5 -4q-238 -319 -438.5 -484.5t-401.5 -165.5q-98 0 -164.5 59.5t-66.5 157.5q0 186 283.5 340t734.5 207q53 82 198.5 253 t286.5 298q61 143 97 199.5t71 56.5t57.5 -26.5t22.5 -68.5t-46 -123t-95.5 -250t-67.5 -318q106 -1 180 -19zM504 182q170 162 256 307q-344 -20 -531.5 -128.5t-187.5 -231.5q0 -53 36 -84t95 -31q160 0 332 168zM1204 629q14 70 38 175t28 124q-98 -94 -137 -138.5 t-138 -168.5q35 2 85 3t83 3t41 2zM1591 1487l-350 115l139 81l271 -159z" />
<glyph unicode="&#xc1;" horiz-adv-x="1658" d="M1548 610l-10 -123q-47 4 -101.5 4.5t-90.5 -2.5q-29 -225 -37 -489h-144q-12 53 -12 141t5 152.5t13.5 128t8.5 74.5q-29 2 -135.5 2t-147.5 -4q-238 -319 -438.5 -484.5t-401.5 -165.5q-98 0 -164.5 59.5t-66.5 157.5q0 186 283.5 340t734.5 207q53 82 198.5 253 t286.5 298q61 143 97 199.5t71 56.5t57.5 -26.5t22.5 -68.5t-46 -123t-95.5 -250t-67.5 -318q106 -1 180 -19zM504 182q170 162 256 307q-344 -20 -531.5 -128.5t-187.5 -231.5q0 -53 36 -84t95 -31q160 0 332 168zM1204 629q14 70 38 175t28 124q-98 -94 -137 -138.5 t-138 -168.5q35 2 85 3t83 3t41 2zM1626 1591l-350 -114l-59 36l270 160z" />
<glyph unicode="&#xc2;" horiz-adv-x="1658" d="M1548 610l-10 -123q-47 4 -101.5 4.5t-90.5 -2.5q-29 -225 -37 -489h-144q-12 53 -12 141t5 152.5t13.5 128t8.5 74.5q-29 2 -135.5 2t-147.5 -4q-238 -319 -438.5 -484.5t-401.5 -165.5q-98 0 -164.5 59.5t-66.5 157.5q0 186 283.5 340t734.5 207q53 82 198.5 253 t286.5 298q61 143 97 199.5t71 56.5t57.5 -26.5t22.5 -68.5t-46 -123t-95.5 -250t-67.5 -318q106 -1 180 -19zM504 182q170 162 256 307q-344 -20 -531.5 -128.5t-187.5 -231.5q0 -53 36 -84t95 -31q160 0 332 168zM1204 629q14 70 38 175t28 124q-98 -94 -137 -138.5 t-138 -168.5q35 2 85 3t83 3t41 2zM1126 1536l301 233q221 -176 265 -221l-62 -49q-174 104 -211 131l-202 -143z" />
<glyph unicode="&#xc3;" horiz-adv-x="1658" d="M1548 610l-10 -123q-47 4 -101.5 4.5t-90.5 -2.5q-29 -225 -37 -489h-144q-12 53 -12 141t5 152.5t13.5 128t8.5 74.5q-29 2 -135.5 2t-147.5 -4q-238 -319 -438.5 -484.5t-401.5 -165.5q-98 0 -164.5 59.5t-66.5 157.5q0 186 283.5 340t734.5 207q53 82 198.5 253 t286.5 298q61 143 97 199.5t71 56.5t57.5 -26.5t22.5 -68.5t-46 -123t-95.5 -250t-67.5 -318q106 -1 180 -19zM504 182q170 162 256 307q-344 -20 -531.5 -128.5t-187.5 -231.5q0 -53 36 -84t95 -31q160 0 332 168zM1204 629q14 70 38 175t28 124q-98 -94 -137 -138.5 t-138 -168.5q35 2 85 3t83 3t41 2zM1624 1671l47 -39q-39 -61 -89 -104t-92 -43t-91 70.5t-90 70.5q-20 0 -41 -14.5t-32 -22.5t-31.5 -24.5t-33.5 -24.5l-57 53q152 133 204 133t111.5 -71.5t90.5 -71.5q20 0 54 37t50 51z" />
<glyph unicode="&#xc4;" horiz-adv-x="1658" d="M1548 610l-10 -123q-47 4 -101.5 4.5t-90.5 -2.5q-29 -225 -37 -489h-144q-12 53 -12 141t5 152.5t13.5 128t8.5 74.5q-29 2 -135.5 2t-147.5 -4q-238 -319 -438.5 -484.5t-401.5 -165.5q-98 0 -164.5 59.5t-66.5 157.5q0 186 283.5 340t734.5 207q53 82 198.5 253 t286.5 298q61 143 97 199.5t71 56.5t57.5 -26.5t22.5 -68.5t-46 -123t-95.5 -250t-67.5 -318q106 -1 180 -19zM504 182q170 162 256 307q-344 -20 -531.5 -128.5t-187.5 -231.5q0 -53 36 -84t95 -31q160 0 332 168zM1204 629q14 70 38 175t28 124q-98 -94 -137 -138.5 t-138 -168.5q35 2 85 3t83 3t41 2zM1217.5 1561.5q-23.5 23.5 -23.5 57.5t23.5 57.5t56.5 23.5t57.5 -24.5t24.5 -57.5t-23.5 -56.5t-57.5 -23.5t-57.5 23.5zM1476.5 1561.5q-22.5 23.5 -22.5 57.5t23.5 57.5t57.5 23.5t57.5 -24.5t23.5 -57.5t-23.5 -56.5t-58.5 -23.5 t-57.5 23.5z" />
<glyph unicode="&#xc5;" horiz-adv-x="1658" d="M1548 610l-10 -123q-47 4 -101.5 4.5t-90.5 -2.5q-29 -225 -37 -489h-144q-12 53 -12 141t5 152.5t13.5 128t8.5 74.5q-29 2 -135.5 2t-147.5 -4q-238 -319 -438.5 -484.5t-401.5 -165.5q-98 0 -164.5 59.5t-66.5 157.5q0 186 283.5 340t734.5 207q53 82 198.5 253 t286.5 298q61 143 97 199.5t71 56.5t57.5 -26.5t22.5 -68.5t-46 -123t-95.5 -250t-67.5 -318q106 -1 180 -19zM504 182q170 162 256 307q-344 -20 -531.5 -128.5t-187.5 -231.5q0 -53 36 -84t95 -31q160 0 332 168zM1204 629q14 70 38 175t28 124q-98 -94 -137 -138.5 t-138 -168.5q35 2 85 3t83 3t41 2zM1553.5 1704q31.5 -27 31.5 -81t-53 -101t-114.5 -47t-93.5 27.5t-32 82.5t52.5 100.5t115 45.5t94 -27zM1478.5 1554.5q26.5 38.5 26.5 88t-43 49.5q-35 0 -63.5 -40t-28.5 -88t49 -48q33 0 59.5 38.5z" />
<glyph unicode="&#xc6;" horiz-adv-x="2410" d="M2413 1178q0 -102 -97.5 -182.5t-223.5 -117t-243 -36.5q-31 0 -45 2v69q4 0 119 19.5t193.5 69t78.5 110.5q0 74 -110 74q-150 0 -283 -102.5t-133 -215t139 -145.5q31 -8 41.5 -16.5t10.5 -29t-19.5 -33.5t-89.5 -38q-377 -129 -377 -401q0 -55 21 -94 q125 160 323.5 260t382.5 100q96 0 153.5 -42t57.5 -116q0 -115 -106.5 -229.5t-275.5 -187t-337 -72.5t-262 61q-2 -2 -16 -32q-43 -80 -72 -113l-67 29q14 57 84 174q-111 82 -111 295q0 104 31 258q-29 2 -135.5 2t-147.5 -4q-238 -319 -438.5 -484.5t-401.5 -165.5 q-98 0 -164.5 59.5t-66.5 157.5q0 186 283.5 340t734.5 207q53 82 198.5 253t286.5 298q61 143 97 199.5t71 56.5t57.5 -26.5t22.5 -68.5t-39 -110q-121 -213 -190 -706q94 76 225 127q-96 80 -96 166q0 117 122.5 238.5t300 197.5t332.5 76q82 0 131.5 -36t49.5 -95z M504 182q170 162 256 307q-344 -20 -531.5 -128.5t-187.5 -231.5q0 -53 36 -84t95 -31q160 0 332 168zM1982 348q-121 0 -281.5 -92t-260.5 -219q82 -92 232.5 -92t294.5 97t144 210q0 45 -35 70.5t-94 25.5zM1204 629q14 70 38 175t28 124q-98 -94 -137 -138.5t-138 -168.5 q35 2 85 3t83 3t41 2z" />
<glyph unicode="&#xc7;" horiz-adv-x="1286" d="M430 -113q49 27 115.5 27t100.5 -26.5t34 -67.5q0 -76 -108.5 -149.5t-235.5 -73.5q-20 0 -49 6l2 49q104 0 176 45t72 94q0 16 -15.5 28.5t-37 12.5t-64.5 -29q-49 -27 -63.5 -26.5t-24.5 8.5t-10 18q0 35 77 185q-121 27 -208 121t-87 247q0 199 144 422 q-104 61 -166 152l55 61q14 -14 39 -43q47 -55 127 -96q121 168 351.5 305t389.5 137q76 0 118 -42t42 -113q0 -160 -190.5 -296t-433.5 -136q-106 0 -226 30q-78 -127 -78 -275.5t82 -239.5t240 -91q283 0 371 330h96q-23 -190 -179.5 -335.5t-412.5 -145.5zM573 788 q178 0 313.5 84t135.5 197q0 39 -27.5 62.5t-70.5 23.5q-125 0 -278.5 -99.5t-244.5 -238.5q74 -29 172 -29z" />
<glyph unicode="&#xc8;" horiz-adv-x="1411" d="M1329 1176q0 -102 -97 -182.5t-223 -117t-243 -36.5q-31 0 -45 2v69q4 0 118.5 19.5t193.5 69t79 110.5q0 74 -111 74q-150 0 -282.5 -102.5t-132.5 -215t139 -145.5q31 -8 41 -16.5t10 -29t-19.5 -33.5t-88.5 -38q-377 -129 -377 -401q0 -55 20 -94q125 160 324 260 t383 100q96 0 153.5 -42t57.5 -116q0 -115 -106.5 -229.5t-275.5 -187t-336 -72.5t-263 61q-2 -2 -19 -30q-41 -82 -69 -115l-68 29q14 57 84 174q-94 106 -94 238t107.5 252t299.5 198q-96 80 -96 166q0 117 123 238.5t300 197.5t333 76q82 0 131 -36t49 -95zM899 346 q-121 0 -281.5 -92t-261.5 -219q82 -92 232.5 -92t295 97t144.5 210q0 45 -35 70.5t-94 25.5zM1163 1399l-350 114l139 82l271 -159z" />
<glyph unicode="&#xc9;" horiz-adv-x="1411" d="M1329 1176q0 -102 -97 -182.5t-223 -117t-243 -36.5q-31 0 -45 2v69q4 0 118.5 19.5t193.5 69t79 110.5q0 74 -111 74q-150 0 -282.5 -102.5t-132.5 -215t139 -145.5q31 -8 41 -16.5t10 -29t-19.5 -33.5t-88.5 -38q-377 -129 -377 -401q0 -55 20 -94q125 160 324 260 t383 100q96 0 153.5 -42t57.5 -116q0 -115 -106.5 -229.5t-275.5 -187t-336 -72.5t-263 61q-2 -2 -19 -30q-41 -82 -69 -115l-68 29q14 57 84 174q-94 106 -94 238t107.5 252t299.5 198q-96 80 -96 166q0 117 123 238.5t300 197.5t333 76q82 0 131 -36t49 -95zM899 346 q-121 0 -281.5 -92t-261.5 -219q82 -92 232.5 -92t295 97t144.5 210q0 45 -35 70.5t-94 25.5zM1219 1479l-351 -115l-59 37l270 160z" />
<glyph unicode="&#xca;" horiz-adv-x="1411" d="M1329 1176q0 -102 -97 -182.5t-223 -117t-243 -36.5q-31 0 -45 2v69q4 0 118.5 19.5t193.5 69t79 110.5q0 74 -111 74q-150 0 -282.5 -102.5t-132.5 -215t139 -145.5q31 -8 41 -16.5t10 -29t-19.5 -33.5t-88.5 -38q-377 -129 -377 -401q0 -55 20 -94q125 160 324 260 t383 100q96 0 153.5 -42t57.5 -116q0 -115 -106.5 -229.5t-275.5 -187t-336 -72.5t-263 61q-2 -2 -19 -30q-41 -82 -69 -115l-68 29q14 57 84 174q-94 106 -94 238t107.5 252t299.5 198q-96 80 -96 166q0 117 123 238.5t300 197.5t333 76q82 0 131 -36t49 -95zM899 346 q-121 0 -281.5 -92t-261.5 -219q82 -92 232.5 -92t295 97t144.5 210q0 45 -35 70.5t-94 25.5zM750 1397l301 233q221 -176 264 -221l-62 -49q-174 104 -211 131l-202 -143z" />
<glyph unicode="&#xcb;" horiz-adv-x="1411" d="M1329 1176q0 -102 -97 -182.5t-223 -117t-243 -36.5q-31 0 -45 2v69q4 0 118.5 19.5t193.5 69t79 110.5q0 74 -111 74q-150 0 -282.5 -102.5t-132.5 -215t139 -145.5q31 -8 41 -16.5t10 -29t-19.5 -33.5t-88.5 -38q-377 -129 -377 -401q0 -55 20 -94q125 160 324 260 t383 100q96 0 153.5 -42t57.5 -116q0 -115 -106.5 -229.5t-275.5 -187t-336 -72.5t-263 61q-2 -2 -19 -30q-41 -82 -69 -115l-68 29q14 57 84 174q-94 106 -94 238t107.5 252t299.5 198q-96 80 -96 166q0 117 123 238.5t300 197.5t333 76q82 0 131 -36t49 -95zM899 346 q-121 0 -281.5 -92t-261.5 -219q82 -92 232.5 -92t295 97t144.5 210q0 45 -35 70.5t-94 25.5zM838 1476.5q0 34.5 23.5 58.5t56 24t57 -24t24.5 -57.5t-23.5 -57t-57 -23.5t-57 22.5t-23.5 57zM1098 1476.5q0 34.5 23.5 58.5t57 24t57.5 -24t24 -57.5t-24 -57t-58.5 -23.5 t-57 22.5t-22.5 57z" />
<glyph unicode="&#xcc;" horiz-adv-x="1241" d="M1227 1262q35 -10 35 -37q0 -8 -25 -37q-94 -121 -132 -180.5t-90 -198.5t-94 -267t-42 -130q-84 -188 -231.5 -297t-309.5 -109q-115 0 -185.5 56.5t-70.5 150.5q0 147 190.5 270t380.5 123l9 -67q-152 -31 -261.5 -113t-109.5 -178q0 -61 35.5 -100t91.5 -39 q104 0 180 97t154.5 345t143.5 362.5t163 192.5q-29 2 -64 2q-176 0 -343 -55.5t-167 -147.5q0 -57 52 -108l-45 -56q-137 96 -138 224q0 84 73 145t196 94q236 63 528 64q64 0 76 -6zM1133 1366l-351 115l140 82l270 -160z" />
<glyph unicode="&#xcd;" horiz-adv-x="1241" d="M1227 1262q35 -10 35 -37q0 -8 -25 -37q-94 -121 -132 -180.5t-90 -198.5t-94 -267t-42 -130q-84 -188 -231.5 -297t-309.5 -109q-115 0 -185.5 56.5t-70.5 150.5q0 147 190.5 270t380.5 123l9 -67q-152 -31 -261.5 -113t-109.5 -178q0 -61 35.5 -100t91.5 -39 q104 0 180 97t154.5 345t143.5 362.5t163 192.5q-29 2 -64 2q-176 0 -343 -55.5t-167 -147.5q0 -57 52 -108l-45 -56q-137 96 -138 224q0 84 73 145t196 94q236 63 528 64q64 0 76 -6zM1161 1491l-350 -115l-59 37l270 160z" />
<glyph unicode="&#xce;" horiz-adv-x="1241" d="M1227 1262q35 -10 35 -37q0 -8 -25 -37q-94 -121 -132 -180.5t-90 -198.5t-94 -267t-42 -130q-84 -188 -231.5 -297t-309.5 -109q-115 0 -185.5 56.5t-70.5 150.5q0 147 190.5 270t380.5 123l9 -67q-152 -31 -261.5 -113t-109.5 -178q0 -61 35.5 -100t91.5 -39 q104 0 180 97t154.5 345t143.5 362.5t163 192.5q-29 2 -64 2q-176 0 -343 -55.5t-167 -147.5q0 -57 52 -108l-45 -56q-137 96 -138 224q0 84 73 145t196 94q236 63 528 64q64 0 76 -6zM627 1409l301 233q221 -176 264 -221l-62 -49q-174 104 -210 131l-203 -143z" />
<glyph unicode="&#xcf;" horiz-adv-x="1241" d="M1227 1262q35 -10 35 -37q0 -8 -25 -37q-94 -121 -132 -180.5t-90 -198.5t-94 -267t-42 -130q-84 -188 -231.5 -297t-309.5 -109q-115 0 -185.5 56.5t-70.5 150.5q0 147 190.5 270t380.5 123l9 -67q-152 -31 -261.5 -113t-109.5 -178q0 -61 35.5 -100t91.5 -39 q104 0 180 97t154.5 345t143.5 362.5t163 192.5q-29 2 -64 2q-176 0 -343 -55.5t-167 -147.5q0 -57 52 -108l-45 -56q-137 96 -138 224q0 84 73 145t196 94q236 63 528 64q64 0 76 -6zM725 1481q0 35 23.5 58.5t57.5 23.5t57.5 -23.5t23.5 -57.5t-23.5 -57.5t-58.5 -23.5 t-57.5 22.5t-22.5 57.5zM985 1481q0 35 23.5 58.5t56.5 23.5t57.5 -23.5t24.5 -57.5t-23.5 -57.5t-57.5 -23.5t-57.5 22.5t-23.5 57.5z" />
<glyph unicode="&#xd0;" horiz-adv-x="1523" d="M580 1307q356 0 609 -211t253 -494t-172 -446.5t-436 -159.5q-141 2 -226 2h-96q-59 0 -59 45q0 10 51 118.5t69 155.5l-223 -32l21 125q131 23 247 34q25 72 44 152q-211 0 -395.5 116.5t-184.5 265t139.5 239t358.5 90.5zM1016 481v-96l-309 -47q-39 -96 -80 -188 q205 -16 341 -16.5t216 101t80 273.5q0 297 -203 506t-490 209q-135 0 -212.5 -57.5t-77.5 -169t107.5 -198.5t287.5 -110q63 268 74 346l122 -12q0 -127 -53 -336q16 0 191 21l10 -68q-41 -14 -227 -43q-33 -104 -43 -135q102 10 266 20z" />
<glyph unicode="&#xd1;" horiz-adv-x="1523" d="M1405 1251l119 -14q-37 -160 -99.5 -374t-113.5 -346t-111.5 -262t-128 -205t-131 -75t-93.5 47.5t-30 167t35 503.5t36 418t-18 34q-23 0 -53.5 -62.5t-46.5 -95.5q-43 -96 -55 -135q-115 -258 -205 -426t-207 -311q-41 -49 -116.5 -100.5t-141.5 -77.5l-45 120 q170 72 307 249t283.5 494.5t210.5 428.5q72 117 145 117q47 0 74 -33t27 -85t-36 -431t-36 -485.5t9 -138.5t32 -32q29 0 61 62q113 219 328 1048zM1391 1599l47 -38q-39 -61 -89.5 -104.5t-92.5 -43.5t-91 70.5t-90 70.5q-20 0 -40.5 -14t-32 -22.5t-32 -24.5t-32.5 -25 l-57 54q152 133 204 133t111 -72t90 -72q20 0 54.5 37t50.5 51z" />
<glyph unicode="&#xd2;" horiz-adv-x="1462" d="M1462 1008v-99q-92 -53 -340 -145q-111 -276 -350.5 -514t-437.5 -238q-113 0 -182.5 80t-69.5 220.5t94 338t248 370.5t313 255q66 43 205 43q104 0 171 -81t67 -190.5t-17 -164.5q156 51 299 125zM649 1079q-68 -70 -67.5 -134t66 -102t164.5 -38t173 18q12 61 12 119 q0 203 -174 203q-80 0 -174 -66zM676 305q201 199 280 414q-51 -10 -131 -10q-344 0 -389 153q-172 -240 -172 -471q0 -92 44 -147.5t130 -55.5q121 0 238 117zM995 1382l-350 115l139 82l271 -160z" />
<glyph unicode="&#xd3;" horiz-adv-x="1462" d="M1462 1008v-99q-92 -53 -340 -145q-111 -276 -350.5 -514t-437.5 -238q-113 0 -182.5 80t-69.5 220.5t94 338t248 370.5t313 255q66 43 205 43q104 0 171 -81t67 -190.5t-17 -164.5q156 51 299 125zM649 1079q-68 -70 -67.5 -134t66 -102t164.5 -38t173 18q12 61 12 119 q0 203 -174 203q-80 0 -174 -66zM676 305q201 199 280 414q-51 -10 -131 -10q-344 0 -389 153q-172 -240 -172 -471q0 -92 44 -147.5t130 -55.5q121 0 238 117zM1079 1493l-350 -115l-59 37l270 160z" />
<glyph unicode="&#xd4;" horiz-adv-x="1462" d="M1462 1008v-99q-92 -53 -340 -145q-111 -276 -350.5 -514t-437.5 -238q-113 0 -182.5 80t-69.5 220.5t94 338t248 370.5t313 255q66 43 205 43q104 0 171 -81t67 -190.5t-17 -164.5q156 51 299 125zM649 1079q-68 -70 -67.5 -134t66 -102t164.5 -38t173 18q12 61 12 119 q0 203 -174 203q-80 0 -174 -66zM676 305q201 199 280 414q-51 -10 -131 -10q-344 0 -389 153q-172 -240 -172 -471q0 -92 44 -147.5t130 -55.5q121 0 238 117zM596 1421l301 234q221 -176 264 -221l-61 -50q-174 104 -211 132l-203 -144z" />
<glyph unicode="&#xd5;" horiz-adv-x="1462" d="M1462 1008v-99q-92 -53 -340 -145q-111 -276 -350.5 -514t-437.5 -238q-113 0 -182.5 80t-69.5 220.5t94 338t248 370.5t313 255q66 43 205 43q104 0 171 -81t67 -190.5t-17 -164.5q156 51 299 125zM649 1079q-68 -70 -67.5 -134t66 -102t164.5 -38t173 18q12 61 12 119 q0 203 -174 203q-80 0 -174 -66zM676 305q201 199 280 414q-51 -10 -131 -10q-344 0 -389 153q-172 -240 -172 -471q0 -92 44 -147.5t130 -55.5q121 0 238 117zM1116 1593l47 -39q-39 -61 -89 -104t-92 -43t-91 70.5t-90 70.5q-20 0 -41 -14t-32 -22.5t-31.5 -25 t-32.5 -24.5l-58 54q152 133 204 133t111.5 -72t90.5 -72q20 0 54 37t50 51z" />
<glyph unicode="&#xd6;" horiz-adv-x="1462" d="M1462 1008v-99q-92 -53 -340 -145q-111 -276 -350.5 -514t-437.5 -238q-113 0 -182.5 80t-69.5 220.5t94 338t248 370.5t313 255q66 43 205 43q104 0 171 -81t67 -190.5t-17 -164.5q156 51 299 125zM649 1079q-68 -70 -67.5 -134t66 -102t164.5 -38t173 18q12 61 12 119 q0 203 -174 203q-80 0 -174 -66zM676 305q201 199 280 414q-51 -10 -131 -10q-344 0 -389 153q-172 -240 -172 -471q0 -92 44 -147.5t130 -55.5q121 0 238 117zM694.5 1414.5q-22.5 23.5 -22.5 57t23.5 57t57 23.5t57.5 -24.5t24 -57t-24 -56t-58.5 -23.5t-57 23.5z M955.5 1414.5q-23.5 23.5 -23.5 57t23.5 57t56 23.5t57.5 -24.5t25 -57t-23.5 -56t-57.5 -23.5t-57.5 23.5z" />
<glyph unicode="&#xd7;" horiz-adv-x="534" d="M135 422l-59 76q63 59 135 123l-152 118l62 97q72 -49 176 -140q139 113 182 142l62 -95l-156 -122l147 -134l-67 -69l-168 133zM524 338v-96l-450 -62l-25 111q182 35 475 47z" />
<glyph unicode="&#xd8;" horiz-adv-x="1124" d="M465 -188l-78 14q8 80 29 211q-55 -18 -111 -19q-106 0 -171.5 79t-65.5 214q0 291 194.5 567.5t448.5 370.5l59 187l80 -19l-43 -139q57 8 88 8q113 0 162 -74.5t49 -177.5q0 -166 -88 -362.5t-228.5 -359t-287.5 -240.5q-23 -125 -37 -260zM375 221q33 0 74 10 q76 414 208 850q-164 -82 -302 -286.5t-138 -380.5q0 -88 46 -140.5t112 -52.5zM774 1110h-20q-147 -485 -219 -842q166 94 294.5 319.5t128.5 387.5q0 66 -50 100.5t-134 34.5z" />
<glyph unicode="&#xd9;" horiz-adv-x="1476" d="M1174 160l65 -54q-25 -70 -84 -128t-129 -58q-94 0 -153.5 92t-77.5 267q-94 -102 -235.5 -193.5t-248 -91.5t-168 71.5t-61.5 184.5q0 256 250 608t506 502l55 -78q-233 -174 -428 -458.5t-195 -499.5q0 -80 38 -124t106.5 -44t191.5 79.5t185 149.5q10 199 95 403.5 t202.5 334.5t220.5 130q86 0 86 -104.5t-154 -349t-305 -387.5q-4 -33 -4 -54q0 -90 36 -187t95 -97q52 0 111 86zM1204 1061q-68 0 -149.5 -159t-104.5 -337q127 152 204 280t77 185q0 31 -27 31zM1294 1368l-350 115l139 82l271 -160z" />
<glyph unicode="&#xda;" horiz-adv-x="1476" d="M1174 160l65 -54q-25 -70 -84 -128t-129 -58q-94 0 -153.5 92t-77.5 267q-94 -102 -235.5 -193.5t-248 -91.5t-168 71.5t-61.5 184.5q0 256 250 608t506 502l55 -78q-233 -174 -428 -458.5t-195 -499.5q0 -80 38 -124t106.5 -44t191.5 79.5t185 149.5q10 199 95 403.5 t202.5 334.5t220.5 130q86 0 86 -104.5t-154 -349t-305 -387.5q-4 -33 -4 -54q0 -90 36 -187t95 -97q52 0 111 86zM1204 1061q-68 0 -149.5 -159t-104.5 -337q127 152 204 280t77 185q0 31 -27 31zM1335 1489l-350 -115l-59 37l270 160z" />
<glyph unicode="&#xdb;" horiz-adv-x="1476" d="M1174 160l65 -54q-25 -70 -84 -128t-129 -58q-94 0 -153.5 92t-77.5 267q-94 -102 -235.5 -193.5t-248 -91.5t-168 71.5t-61.5 184.5q0 256 250 608t506 502l55 -78q-233 -174 -428 -458.5t-195 -499.5q0 -80 38 -124t106.5 -44t191.5 79.5t185 149.5q10 199 95 403.5 t202.5 334.5t220.5 130q86 0 86 -104.5t-154 -349t-305 -387.5q-4 -33 -4 -54q0 -90 36 -187t95 -97q52 0 111 86zM1204 1061q-68 0 -149.5 -159t-104.5 -337q127 152 204 280t77 185q0 31 -27 31zM881 1401l301 233q221 -176 264 -221l-62 -49q-174 104 -210 131l-203 -143 z" />
<glyph unicode="&#xdc;" horiz-adv-x="1476" d="M1174 160l65 -54q-25 -70 -84 -128t-129 -58q-94 0 -153.5 92t-77.5 267q-94 -102 -235.5 -193.5t-248 -91.5t-168 71.5t-61.5 184.5q0 256 250 608t506 502l55 -78q-233 -174 -428 -458.5t-195 -499.5q0 -80 38 -124t106.5 -44t191.5 79.5t185 149.5q10 199 95 403.5 t202.5 334.5t220.5 130q86 0 86 -104.5t-154 -349t-305 -387.5q-4 -33 -4 -54q0 -90 36 -187t95 -97q52 0 111 86zM1204 1061q-68 0 -149.5 -159t-104.5 -337q127 152 204 280t77 185q0 31 -27 31zM928 1468.5q0 34.5 23.5 58t56 23.5t57.5 -23.5t25 -57t-24 -57 t-57.5 -23.5t-57 22.5t-23.5 57zM1188 1468.5q0 34.5 23.5 58t57.5 23.5t57.5 -23.5t23.5 -57t-23.5 -57t-58.5 -23.5t-57.5 22.5t-22.5 57z" />
<glyph unicode="&#xdd;" horiz-adv-x="1392" d="M676 18l61 -2q12 43 56.5 164t62.5 160q-213 -201 -330 -242q-63 -23 -129 -22q-109 0 -168 71.5t-59 200.5q0 184 170 492.5t387 482.5l82 -76q-455 -489 -455 -817q0 -190 149.5 -190t291 163.5t292.5 507.5q61 141 94 186.5t64 45.5t48.5 -18.5t17.5 -49.5 q0 -131 -189 -389q-131 -270 -264 -672q96 -6 205 -47l-21 -69l-217 30q-121 -295 -292 -441t-408 -146q-123 0 -206 66.5t-83 166.5q0 184 248 314t592 130zM217 -518q166 0 294 134t189 314q-274 0 -460.5 -93t-186.5 -226q0 -57 46 -93t118 -36zM1278 1479l-350 -115 l-60 37l271 160z" />
<glyph unicode="&#xde;" horiz-adv-x="1388" d="M795 1468l4 -229q0 -158 -13 -231q168 115 229.5 140.5t144.5 25.5t128 -57.5t45 -164.5q0 -190 -123 -409t-307 -367.5t-348 -148.5q-41 0 -94 4q-96 -205 -175 -303.5t-163 -98.5q-51 0 -80 37t-29 103q0 211 190.5 549.5t424.5 551.5q33 106 33 246l-15 328zM317 178 l58 -28q129 252 217 565q-190 -238 -306 -467.5t-116 -358.5q0 -39 22.5 -39t65.5 65t74 140q-27 12 -51 37zM504 121l39 -2q199 0 372 209q98 121 167 276.5t69 263.5q0 59 -32 94t-87 35q-100 0 -266 -110q-37 -277 -262 -766z" />
<glyph unicode="&#xdf;" horiz-adv-x="720" d="M166 6l-94 21q12 74 153.5 473t194.5 477q72 100 170 100q66 0 104.5 -42t38.5 -125t-57.5 -171t-208.5 -221q-57 -49 -61 -92q0 -47 51 -124t60 -99.5t9 -76.5t-46 -98t-114.5 -44t-123.5 47l32 96q49 -35 94.5 -35t45.5 51q0 16 -48.5 113.5t-48.5 118.5 q0 80 111 192.5t150.5 176t39.5 116.5q0 92 -53 92q-143 0 -399 -946z" />
<glyph unicode="&#xe0;" d="M920 207l47 -35q-29 -61 -106 -116.5t-140 -55.5q-121 0 -121 127q0 59 31 141l-76 -78q-111 -113 -191.5 -151.5t-158.5 -38.5t-118 44t-40 122q0 143 110.5 283.5t282.5 228.5t344 90l4 -68l-86 -18q-186 -41 -328.5 -164t-142.5 -244.5t99 -121.5q92 0 227 129 t225 303l86 -52q-127 -256 -127 -325q0 -29 19.5 -48.5t39 -19.5t25.5 2t12.5 5.5t15.5 9.5t16.5 12t24 18.5t26.5 20.5zM709 819l-351 115l140 82l270 -160z" />
<glyph unicode="&#xe1;" d="M920 207l47 -35q-29 -61 -106 -116.5t-140 -55.5q-121 0 -121 127q0 59 31 141l-76 -78q-111 -113 -191.5 -151.5t-158.5 -38.5t-118 44t-40 122q0 143 110.5 283.5t282.5 228.5t344 90l4 -68l-86 -18q-186 -41 -328.5 -164t-142.5 -244.5t99 -121.5q92 0 227 129 t225 303l86 -52q-127 -256 -127 -325q0 -29 19.5 -48.5t39 -19.5t25.5 2t12.5 5.5t15.5 9.5t16.5 12t24 18.5t26.5 20.5zM786 926l-350 -115l-59 37l270 160z" />
<glyph unicode="&#xe2;" d="M920 207l47 -35q-29 -61 -106 -116.5t-140 -55.5q-121 0 -121 127q0 59 31 141l-76 -78q-111 -113 -191.5 -151.5t-158.5 -38.5t-118 44t-40 122q0 143 110.5 283.5t282.5 228.5t344 90l4 -68l-86 -18q-186 -41 -328.5 -164t-142.5 -244.5t99 -121.5q92 0 227 129 t225 303l86 -52q-127 -256 -127 -325q0 -29 19.5 -48.5t39 -19.5t25.5 2t12.5 5.5t15.5 9.5t16.5 12t24 18.5t26.5 20.5zM311 834l301 233q221 -176 265 -221l-62 -49q-174 104 -211 131l-203 -144z" />
<glyph unicode="&#xe3;" d="M920 207l47 -35q-29 -61 -106 -116.5t-140 -55.5q-121 0 -121 127q0 59 31 141l-76 -78q-111 -113 -191.5 -151.5t-158.5 -38.5t-118 44t-40 122q0 143 110.5 283.5t282.5 228.5t344 90l4 -68l-86 -18q-186 -41 -328.5 -164t-142.5 -244.5t99 -121.5q92 0 227 129 t225 303l86 -52q-127 -256 -127 -325q0 -29 19.5 -48.5t39 -19.5t25.5 2t12.5 5.5t15.5 9.5t16.5 12t24 18.5t26.5 20.5zM856 1010l47 -39q-39 -61 -89 -104.5t-92 -43.5t-91 71t-90 71q-20 0 -41 -14.5t-32 -22.5t-31.5 -24.5t-33.5 -24.5l-57 53q152 133 204 133 t111.5 -71.5t90.5 -71.5q20 0 54 37t50 51z" />
<glyph unicode="&#xe4;" d="M920 207l47 -35q-29 -61 -106 -116.5t-140 -55.5q-121 0 -121 127q0 59 31 141l-76 -78q-111 -113 -191.5 -151.5t-158.5 -38.5t-118 44t-40 122q0 143 110.5 283.5t282.5 228.5t344 90l4 -68l-86 -18q-186 -41 -328.5 -164t-142.5 -244.5t99 -121.5q92 0 227 129 t225 303l86 -52q-127 -256 -127 -325q0 -29 19.5 -48.5t39 -19.5t25.5 2t12.5 5.5t15.5 9.5t16.5 12t24 18.5t26.5 20.5zM456.5 857.5q-22.5 23.5 -22.5 57t23.5 57t57.5 23.5t57.5 -24.5t23.5 -57t-23.5 -56t-58.5 -23.5t-57.5 23.5zM717.5 857.5q-23.5 23.5 -23.5 57 t23.5 57t56.5 23.5t57.5 -24.5t24.5 -57t-23.5 -56t-57.5 -23.5t-57.5 23.5z" />
<glyph unicode="&#xe5;" d="M920 207l47 -35q-29 -61 -106 -116.5t-140 -55.5q-121 0 -121 127q0 59 31 141l-76 -78q-111 -113 -191.5 -151.5t-158.5 -38.5t-118 44t-40 122q0 143 110.5 283.5t282.5 228.5t344 90l4 -68l-86 -18q-186 -41 -328.5 -164t-142.5 -244.5t99 -121.5q92 0 227 129 t225 303l86 -52q-127 -256 -127 -325q0 -29 19.5 -48.5t39 -19.5t25.5 2t12.5 5.5t15.5 9.5t16.5 12t24 18.5t26.5 20.5zM759 1071q32 -27 32 -81t-53.5 -101t-115 -47t-93 27.5t-31.5 83t52 100.5t114.5 45t94.5 -27zM684 922q27 39 27 88t-43 49q-35 0 -64 -40t-29 -88 t50 -48q32 0 59 39z" />
<glyph unicode="&#xe6;" horiz-adv-x="1558" d="M1386 242l48 -37q-63 -88 -174 -146.5t-222.5 -58.5t-177.5 78q-92 -78 -170 -78q-121 0 -121 127q0 59 31 141l-76 -78q-111 -113 -191.5 -151.5t-158.5 -38.5t-118 44t-40 122q0 143 111 283.5t283 228.5t344 90l4 -68l-86 -18q-186 -41 -328.5 -164t-142.5 -244.5 t98 -121.5q92 0 227.5 129t225.5 303l86 -52q-127 -256 -127 -325q0 -29 19.5 -48.5t44 -19.5t46.5 15q-8 31 -8 69q0 188 199.5 370.5t404.5 182.5q135 0 135 -106q0 -111 -142 -223.5t-400 -204.5q18 -47 57 -74t80 -27q89 1 239 101zM999 303q166 57 285 143t119 158 q0 27 -19.5 47.5t-48.5 20.5q-96 0 -208 -120t-128 -249z" />
<glyph unicode="&#xe7;" horiz-adv-x="788" d="M248 -106q49 27 115.5 26.5t100.5 -27t34 -67.5q0 -76 -108.5 -149.5t-235.5 -73.5q-23 0 -50 6l2 49q104 0 176 45t72 94q0 16 -15 28.5t-36.5 12.5t-64.5 -28q-49 -27 -63.5 -27t-25 8t-10.5 19q0 37 84 198q-84 16 -132 75.5t-48 141.5q0 125 96.5 254t249 213 t299.5 84q20 0 62 -4l-7 -80q-225 -10 -373.5 -137t-148.5 -270q0 -59 37 -96t96 -37q94 0 242 139l49 -41q-47 -109 -150.5 -175.5t-195.5 -72.5z" />
<glyph unicode="&#xe8;" horiz-adv-x="821" d="M614 242l48 -37q-63 -88 -174 -146.5t-215.5 -58.5t-168 61.5t-63.5 161.5q0 188 199.5 370.5t404.5 182.5q135 0 135 -106q0 -111 -142 -223.5t-400 -204.5q18 -47 57 -74t80 -27q87 1 239 101zM227 303q166 57 285 143t119 158q0 27 -20.5 47.5t-47.5 20.5 q-96 0 -208 -120t-128 -249zM659 827l-350 115l140 82l270 -160z" />
<glyph unicode="&#xe9;" horiz-adv-x="821" d="M614 242l48 -37q-63 -88 -174 -146.5t-215.5 -58.5t-168 61.5t-63.5 161.5q0 188 199.5 370.5t404.5 182.5q135 0 135 -106q0 -111 -142 -223.5t-400 -204.5q18 -47 57 -74t80 -27q87 1 239 101zM227 303q166 57 285 143t119 158q0 27 -20.5 47.5t-47.5 20.5 q-96 0 -208 -120t-128 -249zM750 944l-351 -115l-59 37l270 160z" />
<glyph unicode="&#xea;" horiz-adv-x="821" d="M614 242l48 -37q-63 -88 -174 -146.5t-215.5 -58.5t-168 61.5t-63.5 161.5q0 188 199.5 370.5t404.5 182.5q135 0 135 -106q0 -111 -142 -223.5t-400 -204.5q18 -47 57 -74t80 -27q87 1 239 101zM227 303q166 57 285 143t119 158q0 27 -20.5 47.5t-47.5 20.5 q-96 0 -208 -120t-128 -249zM213 866l301 234q221 -176 264 -221l-61 -50q-174 104 -211 132l-203 -144z" />
<glyph unicode="&#xeb;" horiz-adv-x="821" d="M614 242l48 -37q-63 -88 -174 -146.5t-215.5 -58.5t-168 61.5t-63.5 161.5q0 188 199.5 370.5t404.5 182.5q135 0 135 -106q0 -111 -142 -223.5t-400 -204.5q18 -47 57 -74t80 -27q87 1 239 101zM227 303q166 57 285 143t119 158q0 27 -20.5 47.5t-47.5 20.5 q-96 0 -208 -120t-128 -249zM326 936q0 35 23.5 58.5t56 23.5t57 -23.5t24.5 -57.5t-23.5 -57.5t-57 -23.5t-57 22.5t-23.5 57.5zM586 936q0 35 23.5 58.5t57 23.5t57.5 -23.5t24 -57.5t-24 -57.5t-58.5 -23.5t-57 22.5t-22.5 57.5z" />
<glyph unicode="&#xec;" horiz-adv-x="589" d="M444 834l-350 114l139 82l271 -160zM432 264l41 -35q-49 -94 -130 -160.5t-146 -66.5q-115 0 -115 160q0 199 164 518q37 70 43 82l88 -53q-43 -78 -105.5 -248t-62.5 -218t20.5 -68.5t49.5 -20.5q55 -1 153 110z" />
<glyph unicode="&#xed;" horiz-adv-x="589" d="M432 264l41 -35q-49 -94 -130 -160.5t-146 -66.5q-115 0 -115 160q0 199 164 518q37 70 43 82l88 -53q-43 -78 -105.5 -248t-62.5 -218t20.5 -68.5t49.5 -20.5q55 -1 153 110zM559 948l-350 -114l-59 36l270 160z" />
<glyph unicode="&#xee;" horiz-adv-x="589" d="M432 264l41 -35q-49 -94 -130 -160.5t-146 -66.5q-115 0 -115 160q0 199 164 518q37 70 43 82l88 -53q-43 -78 -105.5 -248t-62.5 -218t20.5 -68.5t49.5 -20.5q55 -1 153 110zM37 846l301 233q221 -176 264 -221l-61 -49q-174 104 -211 131l-203 -143z" />
<glyph unicode="&#xef;" horiz-adv-x="589" d="M432 264l41 -35q-49 -94 -130 -160.5t-146 -66.5q-115 0 -115 160q0 199 164 518q37 70 43 82l88 -53q-43 -78 -105.5 -248t-62.5 -218t20.5 -68.5t49.5 -20.5q55 -1 153 110zM123 923.5q0 34.5 23.5 58.5t57.5 24t57.5 -24t23.5 -57.5t-23.5 -57t-58.5 -23.5t-57.5 22.5 t-22.5 57zM383 923.5q0 34.5 23.5 58.5t56.5 24t57.5 -24t24.5 -57.5t-23.5 -57t-57.5 -23.5t-57.5 22.5t-23.5 57z" />
<glyph unicode="&#xf0;" horiz-adv-x="759" d="M610 1081l35 -100l-170 -43q106 -147 161.5 -266t55.5 -252q0 -176 -121.5 -297t-285.5 -121q-119 0 -185.5 68.5t-66.5 198.5t84 257t213 191l26 -80q-158 -98 -157 -279q0 -88 43 -142t120.5 -54t143 58.5t65.5 167t-55 230t-166 289.5l-207 -51l-37 107q70 25 179 51 l-84 123l57 143q10 -20 145 -238q66 14 207 39z" />
<glyph unicode="&#xf1;" horiz-adv-x="991" d="M899 248l43 -33q-45 -90 -124 -151.5t-142.5 -61.5t-100 37t-36.5 92t70.5 193.5t70.5 203.5q0 29 -23.5 52.5t-56.5 23.5q-104 0 -210.5 -158.5t-237.5 -457.5l-123 43q39 238 111.5 464t133.5 324l84 -26q-57 -145 -145 -502q283 483 520 483q51 0 85 -34.5t34 -82 t-12.5 -85t-77 -176t-64.5 -173.5t20.5 -54t39 -19t31 6t27.5 18t27.5 22.5t30 28t25.5 23.5zM727 1018l47 -39q-39 -61 -89 -104.5t-92 -43.5t-91 71t-90 71q-20 0 -41 -14.5t-32 -22.5t-31.5 -24.5t-33.5 -24.5l-57 53q152 133 204 133t111.5 -71.5t90.5 -71.5q20 0 54 37 t50 51z" />
<glyph unicode="&#xf2;" horiz-adv-x="718" d="M625 608q53 -88 53 -194q0 -166 -114.5 -296t-270.5 -130q-119 0 -185.5 68.5t-66.5 189.5q0 195 151.5 349.5t339.5 154.5q35 0 50 -2l6 -68q-164 0 -272.5 -94t-108.5 -242q0 -88 43 -142.5t126 -54.5t132 74t49 173.5t-39 180.5zM561 807l-350 115l139 82l271 -160z " />
<glyph unicode="&#xf3;" horiz-adv-x="718" d="M625 608q53 -88 53 -194q0 -166 -114.5 -296t-270.5 -130q-119 0 -185.5 68.5t-66.5 189.5q0 195 151.5 349.5t339.5 154.5q35 0 50 -2l6 -68q-164 0 -272.5 -94t-108.5 -242q0 -88 43 -142.5t126 -54.5t132 74t49 173.5t-39 180.5zM627 920l-351 -115l-59 37l270 159z " />
<glyph unicode="&#xf4;" horiz-adv-x="718" d="M625 608q53 -88 53 -194q0 -166 -114.5 -296t-270.5 -130q-119 0 -185.5 68.5t-66.5 189.5q0 195 151.5 349.5t339.5 154.5q35 0 50 -2l6 -68q-164 0 -272.5 -94t-108.5 -242q0 -88 43 -142.5t126 -54.5t132 74t49 173.5t-39 180.5zM139 834l301 233q221 -176 265 -221 l-62 -49q-174 104 -211 131l-203 -144z" />
<glyph unicode="&#xf5;" horiz-adv-x="718" d="M625 608q53 -88 53 -194q0 -166 -114.5 -296t-270.5 -130q-119 0 -185.5 68.5t-66.5 189.5q0 195 151.5 349.5t339.5 154.5q35 0 50 -2l6 -68q-164 0 -272.5 -94t-108.5 -242q0 -88 43 -142.5t126 -54.5t132 74t49 173.5t-39 180.5zM645 1020l47 -39q-39 -61 -89 -104 t-92 -43t-91 70.5t-90 70.5q-20 0 -41 -14.5t-32 -22.5t-31.5 -24.5t-32.5 -24.5l-58 53q152 133 204 133t111.5 -71.5t90.5 -71.5q20 0 54 37t50 51z" />
<glyph unicode="&#xf6;" horiz-adv-x="718" d="M625 608q53 -88 53 -194q0 -166 -114.5 -296t-270.5 -130q-119 0 -185.5 68.5t-66.5 189.5q0 195 151.5 349.5t339.5 154.5q35 0 50 -2l6 -68q-164 0 -272.5 -94t-108.5 -242q0 -88 43 -142.5t126 -54.5t132 74t49 173.5t-39 180.5zM227 911.5q0 34.5 23.5 58t56.5 23.5 t57.5 -23.5t24.5 -57t-23.5 -57.5t-57.5 -24t-57.5 23t-23.5 57.5zM487 911.5q0 34.5 24 58t57.5 23.5t57 -23.5t23.5 -57t-23.5 -57.5t-58.5 -24t-57.5 23t-22.5 57.5z" />
<glyph unicode="&#xf7;" horiz-adv-x="516" d="M494 598v-96l-471 -62l-25 111q179 35 496 47zM206.5 689.5q-22.5 23.5 -21.5 57t22.5 57t56.5 23.5t58.5 -24.5t23.5 -57t-23.5 -56t-58.5 -23.5t-57.5 23.5zM170 305q0 35 23.5 58.5t56.5 23.5t57.5 -23.5t24.5 -57.5t-23.5 -57.5t-57.5 -23.5t-57.5 22.5t-23.5 57.5z " />
<glyph unicode="&#xf8;" horiz-adv-x="800" d="M539 748l34 2q35 0 50 -2l6 -68q-49 0 -111 -14q-61 -242 -90 -516q72 10 121 74.5t49 154.5q0 45 -16.5 107.5t-22.5 88.5l107 33q25 -31 39 -88t14 -92q0 -156 -86 -276.5t-217 -153.5q-6 -86 -6 -162l-70 -20q2 70 10 172h-16q-119 0 -185.5 68.5t-66.5 189.5 q0 162 110.5 302t266.5 185q35 137 71 252l80 -18q-42 -115 -71 -219zM298 519q-50 -77 -50 -163q0 -172 114 -202q25 264 74 485q-88 -43 -138 -120z" />
<glyph unicode="&#xf9;" horiz-adv-x="942" d="M862 225l43 -35q-35 -86 -109.5 -145t-135 -59t-95.5 42t-35 109.5t23 173.5q-96 -152 -206.5 -237.5t-186.5 -85.5q-115 0 -115 164q0 139 94 356t137 252l99 -43q-84 -135 -127 -266.5t-43 -175.5t27.5 -70.5t64.5 -26.5q82 0 204 150.5t249 449.5l104 -47 q-4 -16 -93 -237.5t-89 -265.5t19.5 -66.5t39 -22.5t29.5 2t20.5 8.5t17.5 10.5t17 14l16 14q4 6 15.5 19.5t15.5 17.5zM680 813l-350 115l139 82l270 -160z" />
<glyph unicode="&#xfa;" horiz-adv-x="942" d="M862 225l43 -35q-35 -86 -109.5 -145t-135 -59t-95.5 42t-35 109.5t23 173.5q-96 -152 -206.5 -237.5t-186.5 -85.5q-115 0 -115 164q0 139 94 356t137 252l99 -43q-84 -135 -127 -266.5t-43 -175.5t27.5 -70.5t64.5 -26.5q82 0 204 150.5t249 449.5l104 -47 q-4 -16 -93 -237.5t-89 -265.5t19.5 -66.5t39 -22.5t29.5 2t20.5 8.5t17.5 10.5t17 14l16 14q4 6 15.5 19.5t15.5 17.5zM748 934l-351 -115l-59 37l270 160z" />
<glyph unicode="&#xfb;" horiz-adv-x="942" d="M862 225l43 -35q-35 -86 -109.5 -145t-135 -59t-95.5 42t-35 109.5t23 173.5q-96 -152 -206.5 -237.5t-186.5 -85.5q-115 0 -115 164q0 139 94 356t137 252l99 -43q-84 -135 -127 -266.5t-43 -175.5t27.5 -70.5t64.5 -26.5q82 0 204 150.5t249 449.5l104 -47 q-4 -16 -93 -237.5t-89 -265.5t19.5 -66.5t39 -22.5t29.5 2t20.5 8.5t17.5 10.5t17 14l16 14q4 6 15.5 19.5t15.5 17.5zM264 852l301 233q221 -176 264 -221l-61 -49q-174 104 -211 131l-203 -143z" />
<glyph unicode="&#xfc;" horiz-adv-x="942" d="M862 225l43 -35q-35 -86 -109.5 -145t-135 -59t-95.5 42t-35 109.5t23 173.5q-96 -152 -206.5 -237.5t-186.5 -85.5q-115 0 -115 164q0 139 94 356t137 252l99 -43q-84 -135 -127 -266.5t-43 -175.5t27.5 -70.5t64.5 -26.5q82 0 204 150.5t249 449.5l104 -47 q-4 -16 -93 -237.5t-89 -265.5t19.5 -66.5t39 -22.5t29.5 2t20.5 8.5t17.5 10.5t17 14l16 14q4 6 15.5 19.5t15.5 17.5zM367 928q0 35 23.5 58.5t56 23.5t57 -23.5t24.5 -57.5t-23.5 -57.5t-57 -23.5t-57 22.5t-23.5 57.5zM627 928q0 35 23.5 58.5t57 23.5t57 -23.5 t23.5 -57.5t-23.5 -57.5t-58 -23.5t-57 22.5t-22.5 57.5z" />
<glyph unicode="&#xfd;" horiz-adv-x="964" d="M883 129l6 -53q-8 -6 -191 -74q-25 -135 -62.5 -267t-75.5 -201t-89 -136q-102 -135 -276 -135q-86 0 -137.5 53t-51.5 145q0 354 594 570l111 389q-176 -264 -318 -326q-70 -33 -146.5 -33t-122.5 49.5t-46 143.5t64.5 263t144.5 284l100 -43q-6 -6 -57 -109 q-90 -186 -90 -276t34.5 -121t102 -31t152.5 81t264 321l73 -43q-16 -68 -72.5 -245t-76.5 -272zM588 -31q-129 -59 -228 -135q-184 -139 -184 -270q0 -49 28.5 -80t71.5 -31q206 0 312 516zM856 922l-350 -115l-60 37l271 160z" />
<glyph unicode="&#xfe;" horiz-adv-x="1054" d="M616.5 695q114.5 85 200.5 85t133 -52t47 -132q0 -221 -158.5 -408.5t-357.5 -187.5q-88 0 -139 31l49 88q109 -14 133 -15q111 0 207 129t96 265q0 51 -29.5 84.5t-76.5 33.5q-115 0 -224.5 -144t-198.5 -373.5t-185 -571.5l-123 43q8 82 82 307q205 627 204 1004 q0 102 -16 217l102 51q51 -125 51.5 -236.5t-29.5 -289t-38 -246.5q156 233 270.5 318z" />
<glyph unicode="&#xff;" horiz-adv-x="964" d="M883 129l6 -53q-8 -6 -191 -74q-25 -135 -62.5 -267t-75.5 -201t-89 -136q-102 -135 -276 -135q-86 0 -137.5 53t-51.5 145q0 354 594 570l111 389q-176 -264 -318 -326q-70 -33 -146.5 -33t-122.5 49.5t-46 143.5t64.5 263t144.5 284l100 -43q-6 -6 -57 -109 q-90 -186 -90 -276t34.5 -121t102 -31t152.5 81t264 321l73 -43q-16 -68 -72.5 -245t-76.5 -272zM588 -31q-129 -59 -228 -135q-184 -139 -184 -270q0 -49 28.5 -80t71.5 -31q206 0 312 516zM493.5 820.5q-22.5 23.5 -22.5 57t23.5 57t57.5 23.5t57.5 -24.5t23.5 -57 t-23.5 -56t-58.5 -23.5t-57.5 23.5zM754.5 820.5q-23.5 23.5 -23.5 57t23.5 57t56.5 23.5t57.5 -24.5t24.5 -57t-23.5 -56t-57.5 -23.5t-57.5 23.5z" />
<glyph unicode="&#x152;" horiz-adv-x="2226" d="M2232 1350q0 -102 -97 -182.5t-223 -117t-243 -36.5q-31 0 -45 2v69q4 0 119 19.5t193.5 69t78.5 110.5q0 74 -110 74q-150 0 -283 -102.5t-133 -215t139 -145.5q31 -8 41 -16.5t10 -29t-19.5 -33.5t-88.5 -38q-377 -129 -377 -401q0 -55 20 -94q125 160 324 260t383 100 q96 0 153.5 -42t57.5 -116q0 -115 -106.5 -229.5t-275.5 -187t-337 -72.5t-262 61q-2 -2 -16 -32q-43 -80 -72 -113l-68 29q14 57 84 174q-94 106 -94 238t107.5 252t300.5 198q-47 39 -68 69q-82 -39 -270 -108q-111 -276 -350.5 -514t-438.5 -238q-113 0 -182.5 80 t-69.5 220.5t94.5 338t248 370.5t313.5 255q66 43 204 43q104 0 171 -81t67 -190.5t-16 -164.5q84 29 142 56.5t58 29.5q0 115 123 235.5t301 198.5t332 78q82 0 131 -36t49 -95zM608 305q201 199 281 414q-51 -10 -131 -10q-344 0 -389 153q-172 -240 -172 -471 q0 -92 44 -147.5t130 -55.5q120 0 237 117zM1802 520q-121 0 -281.5 -92t-260.5 -219q82 -92 232 -92t294.5 97t144.5 210q0 45 -35 70.5t-94 25.5zM582 1079q-68 -70 -68 -134t65.5 -102t165 -38t173.5 18q12 61 12 119q0 203 -174 203q-80 0 -174 -66z" />
<glyph unicode="&#x153;" horiz-adv-x="1241" d="M1085 252l48 -37q-63 -88 -174 -146.5t-214 -58.5q-158 0 -213 121q-117 -143 -280 -143q-119 0 -185.5 68.5t-66.5 189.5q0 195 151.5 349.5t340.5 154.5q35 0 49 -2l6 -68q-164 0 -272.5 -94t-108.5 -242q0 -88 43 -142.5t126 -54.5t132 74t49 173.5t-39 180.5l107 33 q31 -55 41 -98q94 119 229 197.5t266 78.5t131 -106q0 -111 -142 -223.5t-400 -204.5q18 -47 57 -73.5t80 -26.5q87 0 239 100zM698 313q166 57 285 143.5t119 157.5q0 29 -20.5 48.5t-47.5 19.5q-96 0 -208 -120t-128 -249z" />
<glyph unicode="&#x178;" horiz-adv-x="1392" d="M676 18l61 -2q12 43 56.5 164t62.5 160q-213 -201 -330 -242q-63 -23 -129 -22q-109 0 -168 71.5t-59 200.5q0 184 170 492.5t387 482.5l82 -76q-455 -489 -455 -817q0 -190 149.5 -190t291 163.5t292.5 507.5q61 141 94 186.5t64 45.5t48.5 -18.5t17.5 -49.5 q0 -131 -189 -389q-131 -270 -264 -672q96 -6 205 -47l-21 -69l-217 30q-121 -295 -292 -441t-408 -146q-123 0 -206 66.5t-83 166.5q0 184 248 314t592 130zM217 -518q166 0 294 134t189 314q-274 0 -460.5 -93t-186.5 -226q0 -57 46 -93t118 -36zM874 1521.5 q0 34.5 24 58.5t56.5 24t57 -24t24.5 -57.5t-23.5 -57t-57 -23.5t-57.5 22.5t-24 57zM1135 1521.5q0 34.5 23.5 58.5t57 24t57 -24t23.5 -57.5t-23.5 -57t-58 -23.5t-57 22.5t-22.5 57z" />
<glyph unicode="&#x2c6;" horiz-adv-x="538" d="M-20 842l301 233q221 -176 264 -221l-62 -49q-174 104 -211 131l-202 -143z" />
<glyph unicode="&#x2dc;" horiz-adv-x="499" d="M483 1018l47 -39q-39 -61 -89 -104.5t-92 -43.5t-91 71t-90 71q-20 0 -41 -14.5t-32 -22.5t-31.5 -24.5t-32.5 -24.5l-58 53q152 133 204 133t111.5 -71.5t90.5 -71.5q20 0 54 37t50 51z" />
<glyph unicode="&#x2000;" horiz-adv-x="884" />
<glyph unicode="&#x2001;" horiz-adv-x="1769" />
<glyph unicode="&#x2002;" horiz-adv-x="884" />
<glyph unicode="&#x2003;" horiz-adv-x="1769" />
<glyph unicode="&#x2004;" horiz-adv-x="589" />
<glyph unicode="&#x2005;" horiz-adv-x="442" />
<glyph unicode="&#x2006;" horiz-adv-x="294" />
<glyph unicode="&#x2007;" horiz-adv-x="294" />
<glyph unicode="&#x2008;" horiz-adv-x="221" />
<glyph unicode="&#x2009;" horiz-adv-x="353" />
<glyph unicode="&#x200a;" horiz-adv-x="98" />
<glyph unicode="&#x2010;" horiz-adv-x="415" d="M422 600v-96l-424 -60l-25 111q177 35 449 45z" />
<glyph unicode="&#x2011;" horiz-adv-x="415" d="M422 600v-96l-424 -60l-25 111q177 35 449 45z" />
<glyph unicode="&#x2012;" horiz-adv-x="415" d="M422 600v-96l-424 -60l-25 111q177 35 449 45z" />
<glyph unicode="&#x2013;" horiz-adv-x="792" d="M739 606v-96l-663 -66l-25 111q102 20 316 34.5t372 16.5z" />
<glyph unicode="&#x2014;" horiz-adv-x="1021" d="M1028 618v-96l-1008 -92l-24 111q104 20 491 47.5t541 29.5z" />
<glyph unicode="&#x2018;" horiz-adv-x="141" d="M195.5 1102.5q-27.5 -25.5 -67.5 -25.5t-62.5 23.5t-22.5 62.5q0 92 156 203l45 -66q-82 -66 -84 -69q63 -20 63 -66q0 -37 -27.5 -62.5z" />
<glyph unicode="&#x2019;" horiz-adv-x="88" d="M-25.5 1336.5q27.5 25.5 67.5 25.5t62.5 -23.5t22.5 -62.5q0 -90 -156 -203l-45 66q8 6 31 23.5t36 27.5t17 18q-63 20 -63 66q0 37 27.5 62.5z" />
<glyph unicode="&#x201a;" horiz-adv-x="315" d="M44 130q28 26 68 26t62.5 -23.5t22.5 -62.5q0 -90 -156 -203l-45 65q82 66 84 70q-63 20 -64 66q0 36 28 62z" />
<glyph unicode="&#x201c;" horiz-adv-x="391" d="M195.5 1102.5q-27.5 -25.5 -67.5 -25.5t-62.5 23.5t-22.5 62.5q0 92 156 203l45 -66q-82 -66 -84 -69q63 -20 63 -66q0 -37 -27.5 -62.5zM443.5 1098.5q-27.5 -25.5 -67.5 -25.5t-62.5 23.5t-22.5 62.5q0 92 155 203l46 -66q-8 -6 -31 -23.5t-36 -27.5t-17 -18 q63 -20 63 -66q0 -37 -27.5 -62.5z" />
<glyph unicode="&#x201d;" horiz-adv-x="335" d="M223.5 1337.5q28.5 26.5 67.5 25.5t61.5 -24.5t22.5 -62.5q0 -90 -156 -203l-45 66q82 66 84 69q-63 20 -63 66q0 37 28.5 63.5zM-25.5 1340.5q27.5 25.5 67.5 25.5t62.5 -23.5t22.5 -62.5q0 -90 -156 -203l-45 66q8 6 31 23.5t36 27.5t17 18q-63 20 -63 66 q0 37 27.5 62.5z" />
<glyph unicode="&#x201e;" horiz-adv-x="589" d="M44 130q28 26 68 26t62.5 -23.5t22.5 -62.5q0 -90 -156 -203l-45 65q82 66 84 70q-63 20 -64 66q0 36 28 62zM314.5 130q27.5 26 67.5 26t62.5 -23.5t22.5 -62.5q0 -90 -156 -203l-45 65q82 66 84 70q-63 20 -63 66q0 36 27.5 62z" />
<glyph unicode="&#x2022;" horiz-adv-x="309" d="M55 516q0 47 34 81t81 34t81 -34t34 -81t-34 -81t-81 -34t-81 34t-34 81z" />
<glyph unicode="&#x2026;" horiz-adv-x="942" d="M57 71.5q0 34.5 24.5 59.5t59.5 25t59.5 -25t24.5 -59.5t-24.5 -59t-59.5 -24.5t-59.5 24.5t-24.5 59zM389 71.5q0 34.5 24.5 59.5t59.5 25t59.5 -25t24.5 -59.5t-24.5 -59t-59.5 -24.5t-59.5 24.5t-24.5 59zM719 71.5q0 34.5 24.5 59.5t59.5 25t59.5 -25t24.5 -59.5 t-24.5 -59t-59.5 -24.5t-59.5 24.5t-24.5 59z" />
<glyph unicode="&#x202f;" horiz-adv-x="353" />
<glyph unicode="&#x2039;" horiz-adv-x="464" d="M403 813q-203 -193 -225 -225q47 -78 170 -199l41 -39l-29 -102q-33 12 -266 260l-78 84q301 264 338 282z" />
<glyph unicode="&#x203a;" horiz-adv-x="456" d="M399 592l-268 -342l-53 72q12 45 141 206l43 54q-31 49 -77 104t-64 88l67 109q113 -144 211 -291z" />
<glyph unicode="&#x205f;" horiz-adv-x="442" />
<glyph unicode="&#x20ac;" horiz-adv-x="1228" d="M733 442l-403 4q0 -285 313 -284q123 0 193.5 35.5t70.5 134.5q0 23 -2 37l92 12q16 -59 17 -102q0 -131 -114 -205t-309.5 -74t-310 88t-114.5 250q0 51 12 113q-111 0 -180 -2l8 69q68 4 191 4q20 61 63 146l-235 -11l8 64q113 18 268 18q86 158 228.5 282t277.5 183.5 t221 59.5t127 -40t41 -122t-72 -148q-123 -115 -311 -114l-10 67q6 2 44 5t59.5 9.5t51.5 20.5q61 25 62 105q0 37 -27.5 60t-68.5 23q-104 0 -212 -71.5t-174.5 -152.5t-115.5 -167q287 0 391 -14l-10 -74q-133 16 -420 17q-33 -70 -47 -144q352 -4 407 -10z" />
<glyph unicode="&#x25fc;" horiz-adv-x="757" d="M0 758h758v-758h-758v758z" />
</font>
</defs>
</svg>
